.
Авторизация | Регистрация
Хочешь лучшие торренты? Добавь свой email!
Добавить

Торрент скачать бесплатно

» » Волшебники / The Magicians (2015) HDTV [H.264 / 720p-LQ] (сезон 1, серии 1 из 12) BaibaKo (обновляемая) торрент скачать бесплатно




    Волшебники / The Magicians (2015) HDTV [H.264 / 720p-LQ] (сезон 1, серии 1 из 12) BaibaKo (обновляемая) торрент скачать бесплатно

    Опубликовал: Админ | Дата: 13-01-2016, 04:00 | Просмотров: 51

    Производство: США/Groundswell Productions, NBC Universal Television, Universal Cable Productions
    Жанр: драма, фэнтези, ужасы
    Режиссер: Джеймс Л. Конуэй, Скотт Смит, Гай Норман Би

    Актеры
    Джейд Тейлор, Джейсон Ральф, Оливия Тейлор Дадли, Хейл Эйплмен, Стелла Маив, Арджун Гупта, Саммер Бишил, Эдвин Перез, Ханна Левиен, Темби Лок и др.

    Описание

    В один прекрасный момент несколько молодых людей удивительным образом оказываются в университете магии Брэйкбиллз, находящемся в Нью-Йорке. Парни делают необычное открытие, вносящее кардинальные перемены в их жизнь: как оказалось, умопомрачительный мир, о котором они так часто читали в детские годы, действительно есть. Не говоря уже о том, что, у всех у них есть собственные волшебные возможности. Но скоро обнаруживается, что жители данной скрытой от постороннего взгляда местности представляют собой гигантскую опасность для всего населения Земли...

    Дата мировой премьеры: 16 декабря 2015
    Продолжительность: ~00: 51: 00 серия
    Качество видео: HDTV 720p
    Перевод: Многоголосый закадровый, профессиональный -BaibaKo
    Автор перевода: Фиона Кудреватых
    Озвучка: Светлана Доманова, Юля Малахова, Артемий Мирон и Сергей Корчак
    Видео: AVC/H.264, 1280x720 (16: 9), ~2742 Кбит/сек
    Аудио #1 Rus: AC3, 6 каналов, 384 Кбит/сек - (многоголосый закадровый)
    Аудио #2 Eng: AC3, 6 каналов, 384 Кбит/сек - (оригинал)
    Код:

    Полное имя : D:The_Magicians_s1_HDTV720p_BaibaKo_[NNM-CLUB]The.Magicians.s01e01.HDTV720p.Rus.Eng.BaibaKo.tv.mkv
    Формат : Matroska
    Версия формата : Version 4/Version 2
    Размер файла : 1, 29 Гбайт
    Продолжительность : 51 м.
    Общий поток : 3573 Кбит/сек
    Дата кодирования : UTC 2015-12-18 01:11:19
    Программа кодирования : mkvmerge v8.3.0 (\'Over the Horizon\') 64bit
    Библиотека кодирования : libebml v1.3.1 + libmatroska v1.4.2
    DURATION : 00:51:44.960000000
    NUMBER_OF_FRAMES : 97030
    NUMBER_OF_BYTES : 149038080
    _STATISTICS_WRITING_APP : mkvmerge v8.3.0 (\'Over the Horizon\') 64bit
    _STATISTICS_WRITING_DATE_UTC : 2015-12-18 01:11:19
    _STATISTICS_TAGS : BPS DURATION NUMBER_OF_FRAMES NUMBER_OF_BYTES
    Видео
    Идентификатор : 1
    Формат : AVC
    Формат/Информация : Advanced Video Codec
    Профиль формата :High@L4.1
    Параметр CABAC формата : Да
    Параметр ReFrames формата : 5 кадров
    Идентификатор кодека : V_MPEG4/ISO/AVC
    Продолжительность : 51 м.
    Битрейт : 2742 Кбит/сек
    Ширина : 1280 пикселей
    Высота : 720 пикселей
    Соотношение сторон : 16:9
    Режим частоты кадров : Постоянный
    Частота кадров : 23, 976 кадра/сек
    Цветовое пространство : YUV
    Субдискретизация насыщенности : 4:2:0
    Битовая глубина : 8 бит
    Тип развёртки : Прогрессивная
    Бит/(Пиксели*Кадры) : 0.124
    Размер потока : 1012 Мбайт (77%)
    Библиотека кодирования : x264 core 148 r2638 7599210
    Настройки программы : cabac=1/ref=5/deblock=1:0:0/analyse=0x3:0x113/me=umh/subme=8/psy=1/psy_rd=1.00:0.00/mixed_ref=1/me_range=16/chroma_me=1/trellis=1/8x8dct=1/cqm=0/deadzone=21, 11/fast_pskip=1/chroma_qp_offset=-2/threads=22/lookahead_threads=3/sliced_threads=0/nr=0/decimate=1/interlaced=0/bluray_compat=0/constrained_intra=0/bframes=3/b_pyramid=2/b_adapt=2/b_bias=0/direct=3/weightb=1/open_gop=0/weightp=2/keyint=250/keyint_min=23/scenecut=40/intra_refresh=0/rc_lookahead=50/rc=crf/mbtree=1/crf=18.0/qcomp=0.60/qpmin=0/qpmax=69/qpstep=4/ip_ratio=1.40/aq=1:1.00
    Default : Нет
    Forced : Нет
    Коэффициенты матрицы : BT.709
    Аудио #1
    Идентификатор : 2
    Формат : AC-3
    Формат/Информация : Audio Coding 3
    Расширение режима : CM (complete main)
    Параметр Endianness формата : Big
    Идентификатор кодека : A_AC3
    Продолжительность : 51 м.
    Вид битрейта : Постоянный
    Битрейт : 384 Кбит/сек
    Каналы : 6 каналов
    Расположение каналов : Front: L C R, Side: L R, LFE
    Частота : 48, 0 КГц
    Битовая глубина : 16 бит
    Метод сжатия : С потерями
    Размер потока : 142 Мбайт (11%)
    Язык : Russian
    Default : Да
    Forced : Нет
    Аудио #2
    Идентификатор : 3
    Формат : AC-3
    Формат/Информация : Audio Coding 3
    Расширение режима : CM (complete main)
    Параметр Endianness формата : Big
    Идентификатор кодека : A_AC3
    Продолжительность : 51 м.
    Вид битрейта : Постоянный
    Битрейт : 384 Кбит/сек
    Каналы : 6 каналов
    Расположение каналов : Front: L C R, Side: L R, LFE
    Частота : 48, 0 КГц
    Битовая глубина : 16 бит
    Метод сжатия : С потерями
    Размер потока : 142 Мбайт (11%)
    Язык : English
    Default : Нет
    Forced : Нет


    Скриншоты для ознакомления




    Онлайн видео Волшебники



    Волшебники/The Magicians (2015) HDTV [H.264/720p-LQ] (сезон 1, серии 1 из 12) BaibaKo (обновляемая)
    загрузка...
    Рейтинг →
     (голосов: 1, оценка 4/5, голосовать можно 1 раз )

    Другие торренты по теме:

  • Волшебники / The Magicians (2016) HDTVRip (сезон 1, серии 1 из 13) BaibaKo (обновляемая) скачать через торрент бесплатно
  • Волшебники / The Magicians (2016) HDTVRip (сезон 1, серии 1 из 13) LostFilm (обновляемая) скачать через торрент бесплатно
  • Волшебники / The Magicians (2015) HDTVRip [H.264] (сезон 1, серии 1 из 12) BaibaKo [MP4|720x400]
  • Волшебники / The Magicians (2015) HDTVRip [H.264] (сезон 1, серии 1 из 12) LostFilm [MP4|1280x720]
  • Волшебники / The Magicians (2017) HDTVRip [H.264 / 720p-LQ] (сезон 2, серии 1 из 13) Jaskier (обновляемая)
  • Волшебники / The Magicians (2017) WEB-DL [H.264 / 720p-LQ] (сезон 2, серии 1-13 из 13) Jaskier


    • Комментарии (0):

      Информация

      Информация

        Посетители, находящиеся в группе Гости, не могут оставлять комментарии в данной новости.

        ↓ Меню




        ↓ Опрос

        Вы добавили сайт в закладки?
        Да
        Нет


        Top 10 за месяц (Фильмы)