.
Авторизация | Регистрация
Хочешь лучшие торренты? Добавь свой email!
Добавить

Торрент скачать бесплатно

» » Оттенки синего / Shades of Blue (2016) WEB-DLRip (сезон 1, серии 1 из 13) NewStudio (обновляемая) скачать через торрент бесплатно




    Оттенки синего / Shades of Blue (2016) WEB-DLRip (сезон 1, серии 1 из 13) NewStudio (обновляемая) скачать через торрент бесплатно

    Опубликовал: Админ | Дата: 12-01-2016, 04:00 | Просмотров: 43

    Производство: США/Nuyorican Productions, Ryan Seacrest Productions, Universal Television
    Жанр: драма, криминал
    Режиссер: Дэн Лернер, Милисент Шелтон, Дэвид Бойд

    Актеры
    Дженнифер Лопез, Уоррен Коул, Дайо Окенийи, Хэмптон Флакер, Винсент Лареска, Сара Джеффри, Рэй Лиотта, Дреа де Маттео, Джессика Уитни Дэвис, Сантино Фонтана и др.

    Описание

    Харли Сантос – сексуальная женщина-детектив, работающая в Нью-Йорке, а в свободное от службы время – мать одиночка. О таком странном сюжете не догадывалась даже Бейонсе. Полицейская дорожка приводит её в дружный коллектив грязных копов, с удовольствием берущих взятки, покрывающих преступников и занимающихся иными видами криминальной деятельности, с которой вообще-то призваны бороться. Харли не отстаёт в зарабатывании нечестного бабла от своих коллег. Но, если те левыми доходами обеспечивают себе красивую жизнь, то Харли деньги нужны для другого. С их помощью она хочет обеспечить достойное будущее для собственной дочери – девочки талантливой и честной. Проблемы начинаются, когда героиня попадает в сети ФБР. Сотрудники Бюро принуждают её стучать на тех, кто ещё вчера был ей друзьями-приятелями. А значит, придётся идти по тонкой линии между любовью и привычно изменившимися обстоятельствами, предательством и честью.

    Дата мировой премьеры: 07 января 2016
    Продолжительность: ~00: 43: 00 серия
    Качество видео: WEB-DLRip
    Перевод: Многоголосый закадровый, профессиональный -NewStudio
    Автор перевода: Булат Карабасов
    Видео: XviD, 720x400 (16: 9), ~1500 kb/s
    Аудио Rus: MPEG Layer 3, 48, 0 kHz, 2 ch, 128 kb/s — многоголосый закадровый
    Аудио Eng: MPEG Layer 3, 48, 0 kHz, 2 ch, 128 kb/s — оригинал
    Общее
    Полное имя : D: Оттенки синего (сезон любимого сериала 1) Shades of Blue (2016) WEB-DLRip - NewStudioShades.of.Blue.S01E01.WEBDLRip.Rus.Eng.DV.NewStudio.avi
    Формат : AVI
    Формат/Информация : Audio Video Interleave
    Размер файла : 537 Мбайт
    Продолжительность : 42 м.
    Общий поток : 1759 Кбит/сек
    Программа кодирования : VirtualDubModRus 1.5.10.2 (build 2542/release)
    Библиотека кодирования : VirtualDubMod build 2542/release
    Видео
    Идентификатор : 0
    Формат : MPEG-4 Visual
    Профиль формата : Advanced Simple@L5
    Параметр BVOP формата : 2
    Параметр QPel формата : Нет
    Параметр GMC формата : Без точки перехода
    Параметр матрицы формата : Default (MPEG)
    Идентификатор кодека : XVID
    Идентификатор кодека/Подсказка : XviD
    Продолжительность : 42 м.
    Битрейт : 1489 Кбит/сек
    Ширина : 720 пикселей
    Высота : 400 пикселей
    Соотношение сторон : 16: 9
    Частота кадров : 23, 976 (23976/1000) кадра/сек
    Цветовое пространство : YUV
    Субдискретизация насыщенности : 4: 2: 0
    Битовая глубина : 8 бит
    Тип развёртки : Прогрессивная
    Метод сжатия : С потерями
    Бит/(Пиксели*Кадры) : 0.216
    Размер потока : 454 Мбайт (85%)
    Библиотека кодирования : XviD 73
    Аудио #1
    Идентификатор : 1
    Формат : MPEG Audio
    Версия формата : Version 1
    Профиль формата : Layer 3
    Режим : Joint stereo
    Расширение режима : MS Stereo
    Идентификатор кодека : 55
    Идентификатор кодека/Подсказка : MP3
    Продолжительность : 42 м.
    Вид битрейта : Постоянный
    Битрейт : 128 Кбит/сек
    Каналы : 2 канала
    Частота : 48, 0 КГц
    Метод сжатия : С потерями
    Размер потока : 39, 0 Мбайт (7%)
    Выравнивание : Соединение по промежуткам
    Продолжительность промежутка : 42 мс. (1, 00 видеокадр)
    Время предзагрузки промежутка : 504 мс.
    Аудио #2
    Идентификатор : 2
    Формат : MPEG Audio
    Версия формата : Version 1
    Профиль формата : Layer 3
    Режим : Joint stereo
    Расширение режима : MS Stereo
    Идентификатор кодека : 55
    Идентификатор кодека/Подсказка : MP3
    Продолжительность : 42 м.
    Вид битрейта : Постоянный
    Битрейт : 128 Кбит/сек
    Каналы : 2 канала
    Частота : 48, 0 КГц
    Метод сжатия : С потерями
    Размер потока : 39, 0 Мбайт (7%)
    Выравнивание : Соединение по промежуткам
    Продолжительность промежутка : 42 мс. (1, 00 видеокадр)
    Время предзагрузки промежутка : 504 мс.
    Библиотека кодирования : LAME3.99.5


    Скриншоты для ознакомления




    Онлайн видео Оттенки синего



    Оттенки синего/Shades of Blue (2016) WEB-DLRip (сезон 1, серии 1 из 13) NewStudio (обновляемая)
    загрузка...
    Рейтинг →
     (голосов: 1, оценка 5/5, голосовать можно 1 раз )

    Другие торренты по теме:

  • Оттенки синего / Shades of Blue (2016) WEB-DLRip (сезон 1, серии 1 из 13) BaibaKo (обновляемая) скачать через торрент бесплатно
  • Оттенки синего / Shades of Blue (2017) WEB-DLRip (сезон 2, серии 1 из 13) NewStudio (обновляемая)


    • Комментарии (0):

      Информация

      Информация

        Посетители, находящиеся в группе Гости, не могут оставлять комментарии в данной новости.

        ↓ Меню




        ↓ Опрос

        Вы добавили сайт в закладки?
        Да
        Нет


        Top 10 за месяц (Фильмы)