.
Авторизация | Регистрация
Хочешь лучшие торренты? Добавь свой email!
Добавить

Торрент скачать бесплатно

» » Паутина-9 (2015) SATRip [H.264] (1-2 серия из 24) (обновляемая) скачать через торрент бесплатно




    Паутина-9 (2015) SATRip [H.264] (1-2 серия из 24) (обновляемая) скачать через торрент бесплатно

    Опубликовал: Админ | Дата: 12-01-2016, 04:00 | Просмотров: 49

    Производство: Россия/Форвард-фильм, Яуза-фильм
    Жанр: детектив, криминал
    Режиссер: Михаил Галин , Степан Коршунов

    Актеры
    Олег Харитонов, Олег Филипчик, Юлия Селиванова, Ника Балина, Янина Когут, Анна Куркова, Александр Денисов, Андрей Муравьёв, Ангелина Притуманова, Александр Баринов, Александра Булычёва, Маргарита Иванова-Донская , Валерий Новиков, Николай Зазуля, Наталья Дворецкая, Евгений Галушко, Анна Карышева и др.

    Описание

    Оперативникам предстоит раскрыть еще много кровавых преступлений и злодейских убийств. Например, глухарь, что попал к Туманову и Грекову - убийство бывшего полицейского, человека, который опустился на самое дно. Пару лет назад опытный полицейский был с позором изгнан из органов. По словам бывших коллег, в последнее время это был персонаж без определенных занятий, с букетом сомнительных связей, морально неустойчивый, пьющий, игрок...

    Дата премьеры в России: 11 января 2016 (НТВ)
    Продолжительность: ~00: 45: 00 серия
    Качество видео: SATRip
    Видео: AVC/H.264, 720х400 (16: 9), ~1858 Кбит/сек
    Аудио: AC3, 2 канала, 192 Кбит/сек, CBR
    Код:

    Уникальный идентификатор : 191558143361839506182551871938314384128 (0x901CC1A5FF7F18448C0378B135143300)
    Полное имя : E:Паутина 9Паутина-9_01 серия rip by_Aleksan55.mkv
    Формат : Matroska
    Версия формата : Version 2
    Размер файла : 688 Мбайт
    Продолжительность : 45 м.
    Общий поток : 2091 Кбит/сек
    Дата кодирования : UTC 2016-01-11 17:50:54
    Программа кодирования : mkvmerge v7.8.0 (\'River Man\') 32bit built on Apr 3 2015 12:11:22
    Библиотека кодирования : libebml v1.3.1 + libmatroska v1.4.2
    Видео
    Идентификатор : 1
    Формат : AVC
    Формат/Информация : Advanced Video Codec
    Профиль формата :High@L4.1
    Параметр CABAC формата : Да
    Параметр ReFrames формата : 9 кадров
    Идентификатор кодека : V_MPEG4/ISO/AVC
    Продолжительность : 45 м.
    Битрейт : 1858 Кбит/сек
    Ширина : 720 пикселей
    Высота : 400 пикселей
    Соотношение сторон : 1, 85:1
    Режим частоты кадров : Постоянный
    Частота кадров : 25, 000 кадров/сек
    Цветовое пространство : YUV
    Субдискретизация насыщенности : 4:2:0
    Битовая глубина : 8 бит
    Тип развёртки : Прогрессивная
    Бит/(Пиксели*Кадры) : 0.258
    Размер потока : 611 Мбайт (89%)
    Библиотека кодирования : x264 core 146 r2538 121396c
    Настройки программы : cabac=1/ref=9/deblock=1:-2:-2/analyse=0x3:0x133/me=umh/subme=9/psy=1/psy_rd=1.00:0.25/mixed_ref=0/me_range=32/chroma_me=1/trellis=2/8x8dct=1/cqm=0/deadzone=21, 11/fast_pskip=1/chroma_qp_offset=-4/threads=2/lookahead_threads=1/sliced_threads=0/nr=0/decimate=1/interlaced=0/bluray_compat=0/constrained_intra=0/bframes=9/b_pyramid=2/b_adapt=1/b_bias=0/direct=1/weightb=1/open_gop=0/weightp=2/keyint=250/keyint_min=25/scenecut=40/intra_refresh=0/rc_lookahead=40/rc=crf/mbtree=1/crf=17.0/qcomp=0.60/qpmin=0/qpmax=69/qpstep=4/ip_ratio=1.40/aq=1:1.20
    Default : Да
    Forced : Нет
    Цветовой диапазон : Limited
    Основные цвета : BT.601 PAL
    Характеристики трансфера : BT.470 System B, BT.470 System G
    Коэффициенты матрицы : BT.601
    Аудио
    Идентификатор : 2
    Формат : AC-3
    Формат/Информация : Audio Coding 3
    Расширение режима : CM (complete main)
    Параметр Endianness формата : Big
    Идентификатор кодека : A_AC3
    Продолжительность : 45 м.
    Вид битрейта : Постоянный
    Битрейт : 192 Кбит/сек
    Каналы : 2 канала
    Расположение каналов : Front: L R
    Частота : 48, 0 КГц
    Метод сжатия : С потерями
    Размер потока : 63, 1 Мбайт (9%)
    Default : Да
    Forced : Нет


    Скриншоты для ознакомления




    Онлайн видео Паутина



    Паутина-9 (2015) SATRip [H.264] (1-2 серия из 24) (обновляемая)
    загрузка...
    Рейтинг →
     (голосов: 1, оценка 4/5, голосовать можно 1 раз )

    Другие торренты по теме:

  • Паутина 8 (2015) SATRip (серия 1-4 из 24) (обновляемая)
  • Московская паутина (2007) SATRip (Серии 1-3 из 3)
  • Чёрная паутина (2015) SATRip [H.264] (серии 1-4 из 4)
  • Чёрная паутина (2015) SATRip (серии 1-4 из 4)


    • Комментарии (0):

      Информация

      Информация

        Посетители, находящиеся в группе Гости, не могут оставлять комментарии в данной новости.

        ↓ Меню




        ↓ Опрос

        Вы добавили сайт в закладки?
        Да
        Нет


        Top 10 за месяц (Фильмы)