.
Авторизация | Регистрация
Хочешь лучшие торренты? Добавь свой email!
Добавить

Торрент скачать бесплатно

» » Шерлок / Sherlock (2010-2014) BDRip [H.264] (сезон 1, серии 1-3 из 3) Первый канал (обновляемая) скачать через торрент бесплатно




    Шерлок / Sherlock (2010-2014) BDRip [H.264] (сезон 1, серии 1-3 из 3) Первый канал (обновляемая) скачать через торрент бесплатно

    Опубликовал: Админ | Дата: 11-01-2016, 04:02 | Просмотров: 31

    Производство: Великобритания/Hartswood Films, BBC Wales, Masterpiece Theatre
    Жанр: криминал, драма, мистика
    Режиссер: Пол МакГиган, Еврос Лин, Коки Гиедроик

    Актеры
    Бенедикт Камбербэтч, Мартин Фриман, Руперт Грейвз, Уна Стаббс, Лу Брили, Зои Телфорд, Питер Брук, Джемма Чан, Виннет Робинсон, Джини Спарк и др.

    Описание

    События разворачиваются в наши дни. Он прошел Афганистан, остался инвалидом. По возвращении в родные края встречается с загадочным, но своеобразным гениальным человеком. Тот в поиске соседа по квартире. Лондон, 2010 год. Происходят необъяснимые убийства. Скотланд-Ярд без понятия, за что хвататься. Существует лишь один человек, который в силах разрешить проблемы и найти ответы на сложные вопросы.

    Продолжительность: ~01: 30: 00 серия
    Качество видео: BDRip
    Перевод: Дублированный -Первый канал
    Видео: AVC/H.264, 1024х576 (16: 9), ~2900 kbps
    Аудио #1 Rus: AC3, 48, 0 kHz, 2 ch, 320 Kbps, CBR (Первый канал)
    Аудио #2 Eng: AC3, 48, 0 kHz, 2 ch, 320 Kbps, CBR (оригинал)
    Код:
    Общее
    Уникальный идентификатор : 201419240102527384652871491798498566058 (0x9787EF413825F574B730098583DC5FAA)
    Полное имя : E:DOWNLOADSШерлок (1-3 сезон любимого сериалаы) (2010-2014) BDRip [H.264]Шерлок - 01 серия. Этюд в розовых тонах.mkv
    Формат : Matroska
    Версия формата : Version 2
    Размер файла : 2, 18 Гбайт
    Продолжительность : 1 ч. 28 м.
    Общий поток : 3538 Кбит/сек
    Дата кодирования : UTC 2016-01-09 13:53:15
    Программа кодирования : mkvmerge v7.8.0 (\'River Man\') 32bit built on Apr 3 2015 12:11:22
    Библиотека кодирования : libebml v1.3.1 + libmatroska v1.4.2
    Видео
    Идентификатор : 1
    Формат : AVC
    Формат/Информация : Advanced Video Codec
    Профиль формата :High@L4.1
    Параметр CABAC формата : Да
    Параметр ReFrames формата : 5 кадров
    Идентификатор кодека : V_MPEG4/ISO/AVC
    Продолжительность : 1 ч. 28 м.
    Битрейт : 2896 Кбит/сек
    Ширина : 1024 пикселя
    Высота : 576 пикселей
    Соотношение сторон : 16:9
    Режим частоты кадров : Постоянный
    Частота кадров : 25, 000 кадров/сек
    Цветовое пространство : YUV
    Субдискретизация насыщенности : 4:2:0
    Битовая глубина : 8 бит
    Тип развёртки : Прогрессивная
    Бит/(Пиксели*Кадры) : 0.196
    Размер потока : 1, 74 Гбайт (80%)
    Библиотека кодирования : x264 core 146 r2538 121396c
    Настройки программы : cabac=1/ref=5/deblock=1:-1:-1/analyse=0x3:0x133/me=umh/subme=7/psy=1/psy_rd=1.00:0.00/mixed_ref=1/me_range=16/chroma_me=1/trellis=2/8x8dct=1/cqm=0/deadzone=21, 11/fast_pskip=0/chroma_qp_offset=-2/threads=6/lookahead_threads=1/sliced_threads=0/nr=0/decimate=1/interlaced=0/bluray_compat=0/constrained_intra=0/bframes=3/b_pyramid=2/b_adapt=2/b_bias=0/direct=3/weightb=1/open_gop=0/weightp=2/keyint=250/keyint_min=25/scenecut=40/intra_refresh=0/rc_lookahead=50/rc=2pass/mbtree=1/bitrate=2896/ratetol=1.0/qcomp=0.60/qpmin=0/qpmax=69/qpstep=4/cplxblur=20.0/qblur=0.5/ip_ratio=1.40/aq=1:1.00
    Default : Да
    Forced : Нет
    Аудио #1
    Идентификатор : 2
    Формат : AC-3
    Формат/Информация : Audio Coding 3
    Расширение режима : CM (complete main)
    Параметр Endianness формата : Big
    Идентификатор кодека : A_AC3
    Продолжительность : 1 ч. 28 м.
    Вид битрейта : Постоянный
    Битрейт : 320 Кбит/сек
    Каналы : 2 канала
    Расположение каналов : Front: L R
    Частота : 48, 0 КГц
    Метод сжатия : С потерями
    Размер потока : 201 Мбайт (9%)
    Заголовок : Первый канал
    Язык : Russian
    Default : Да
    Forced : Нет
    Аудио #2
    Идентификатор : 3
    Формат : AC-3
    Формат/Информация : Audio Coding 3
    Расширение режима : CM (complete main)
    Параметр Endianness формата : Big
    Идентификатор кодека : A_AC3
    Продолжительность : 1 ч. 28 м.
    Вид битрейта : Постоянный
    Битрейт : 320 Кбит/сек
    Каналы : 2 канала
    Расположение каналов : Front: L R
    Частота : 48, 0 КГц
    Метод сжатия : С потерями
    Размер потока : 201 Мбайт (9%)
    Заголовок : Original
    Язык : English
    Default : Нет
    Forced : Нет


    Скриншоты для ознакомления




    Онлайн видео Шерлок



    Шерлок/Sherlock (2010-2014) BDRip [H.264] (сезон 1, серии 1-3 из 3) Первый канал (обновляемая)
    загрузка...
    Рейтинг →
     (голосов: 1, оценка 5/5, голосовать можно 1 раз )

    Другие торренты по теме:

  • Шерлок / Sherlock (2016) WEB-DL [H.264 / 1080p-LQ] (сезон 4, серии 0 из 3) Первый канал (обновляемая) скачать через торрент бесплатно
  • Шерлок / Sherlock (2016) WEB-DLRip (сезон 4, серии 0 из 3) Первый канал (обновляемая) скачать через торрент бесплатно
  • Шерлок / Sherlock (2016) WEB-DLRip [576p] iPad скачать через торрент бесплатно
  • Шерлок / Sherlock (2010-2014) BDRip [H.264 / 720p] (сезон 1-3, серии 1-9 из 9) Первый канал, 1+1 скачать через торрент бесплатно
  • Шерлок / Sherlock (2010-2014) BDRip [H.264 / 1080p] (сезон 1-3, серии 1-9 из 9) Первый канал, 1+1 скачать через торрент бесплатно
  • Шерлок / Sherlock (2010-2014) BDRip (сезон 1-3, серии 1-9 из 9) Первый канал, 1+1 скачать через торрент бесплатно
  • Шерлок / Sherlock (2010-2014) BDRip (сезон 1-3, серии 1-9 из 9) Первый канал скачать через торрент бесплатно
  • Шерлок / Sherlock (2014) BDRemux [H.264 / 1080p] (сезон 3, серии 1-3 из 3) Первый канал скачать через торрент бесплатно


    • Комментарии (0):

      Информация

      Информация

        Посетители, находящиеся в группе Гости, не могут оставлять комментарии в данной новости.

        ↓ Меню




        ↓ Опрос

        Вы добавили сайт в закладки?
        Да
        Нет


        Top 10 за месяц (Фильмы)