.
Авторизация | Регистрация
Хочешь лучшие торренты? Добавь свой email!
Добавить

Торрент скачать бесплатно

» » Война и Мир / War and Peace (2016) HDTVRip (сезон 1, серия 1 из 6) ColdFilm (обновляемая) скачать через торрент бесплатно




    Война и Мир / War and Peace (2016) HDTVRip (сезон 1, серия 1 из 6) ColdFilm (обновляемая) скачать через торрент бесплатно

    Опубликовал: Админ | Дата: 5-01-2016, 04:02 | Просмотров: 123

    Производство: США, Великобритания, BBC Cymru Wales, BBC Worldwide, The Weinstein Company LLC
    Жанр: Драма, мелодрама, военный, история, экранизация
    Режиссер: Том Харпер

    Актеры
    Анейрин Барнард, Пол Дано, Лили Джеймс, Джеймс Нортон, Оливия Росс, Рори Кинэн, Гийом Форе, Дэвид Куилтер, Кит Коннор, Отто Фаррант

    Описание

    Год 1805-ый...Французская армия под командованием Наполеона вторглась в Австрию...Наполеон продолжил свой путь на восток, и Россия решила объединиться с Австрией, чтобы дать ему отпор...Русские вступили в войну, которая навсегда изменит их жизнь. Новая экранизация романа Льва Толстого.

    Дата мировой премьеры: 3 января 2016
    Продолжительность: ~ 01: 00: 00 серия
    Качество видео: HDTVRip
    Перевод: Любительский (двухголосый, закадровый) - ColdFilm
    Видео: xvid, 720x400 (16: 9), 25.000 fps, 993 Kbps (0.138 bit/pixel)
    Аудио: MP3, 48.0 KHz, 2 ch, 128 Kbps, CBR
    Код:
    Формат : AVI
    Формат/Информация : Audio Video Interleave
    Размер файла : 485 Мбайт
    Продолжительность : 59 м.
    Общий поток : 1134 Кбит/сек
    Программа кодирования : Lavf54.63.104
    Видео
    Идентификатор : 0
    Формат : xvid
    Идентификатор кодека : xvid
    Продолжительность : 59 м.
    Битрейт : 993 Кбит/сек
    Ширина : 720 пикселей
    Высота : 400 пикселей
    Соотношение сторон : 16:9
    Частота кадров : 25, 000 кадров/сек
    Бит/(Пиксели*Кадры) : 0.138
    Размер потока : 425 Мбайт (88%)
    Аудио
    Идентификатор : 1
    Формат : MPEG Audio
    Версия формата : Version 1
    Профиль формата : Layer 3
    Режим : Joint stereo
    Идентификатор кодека : 55
    Идентификатор кодека/Подсказка : MP3
    Продолжительность : 59 м.
    Вид битрейта : Постоянный
    Битрейт : 128 Кбит/сек
    Каналы : 2 канала
    Частота : 48, 0 КГц
    Метод сжатия : С потерями
    Размер потока : 54, 8 Мбайт (11%)
    Выравнивание : Соединение по промежуткам
    Продолжительность промежутка : 24 мс. (0, 60 видеокадр)
    Библиотека кодирования : LAME3.99.5


    Скриншоты для ознакомления




    Онлайн видео Война и Мир



    Война и Мир/War and Peace (2016) HDTVRip (сезон 1, серия 1 из 6) ColdFilm (обновляемая)
    загрузка...
    Рейтинг →
     (голосов: 1, оценка 4/5, голосовать можно 1 раз )

    Другие торренты по теме:

  • Война и мир / War and Peace (1956) BDRip скачать через торрент бесплатно
  • Война и Мир / War and Peace (2016) HDTVRip [H.264 / 720p-LQ] (сезон 1, серия 1 из 6) ColdFilm (обновляемая) скачать через торрент бесплатно
  • Война и Мир / War and Peace (2016) WEB-DLRip (сезон 1, серии 1 из 6) BaibaKo (обновляемая) скачать через торрент бесплатно
  • Война и Мир / War and Peace (2016) HDTVRip (сезон 1, серии 1 из 6) NewStudio (обновляемая) скачать через торрент бесплатно
  • Война и мир / War and Peace (2015) WEB-DL [H.264 / 1080p-LQ] (сезон 1, серии 1-3 из 6) (NewStudio) (обновляемая)
  • Война и Мир / War and Peace (2016) WEB-DL [H.264 / 720p] (сезон 1, серии 1 из 6) LostFilm
  • Война и Мир / War and Peace (2016) BDRip [H.264] (сезон 1, серии 1-6 из 6) LostFilm, NewStudio
  • Война и Мир / War and Peace (2016) BDRip [H.264] (сезон 1, серии 1-6 из 6) Первый канал, NewStudio, LostFilm


    • Комментарии (0):

      Информация

      Информация

        Посетители, находящиеся в группе Гости, не могут оставлять комментарии в данной новости.

        ↓ Меню




        ↓ Опрос

        Вы добавили сайт в закладки?
        Да
        Нет


        Top 10 за месяц (Фильмы)