.
Авторизация | Регистрация
Хочешь лучшие торренты? Добавь свой email!
Добавить

Торрент скачать бесплатно

» » Шерлок Холмс и доктор Ватсон: Собака Баскервилей (1981) BDRip [H.264 / 720p-LQ] скачать через торрент бесплатно




    Шерлок Холмс и доктор Ватсон: Собака Баскервилей (1981) BDRip [H.264 / 720p-LQ] скачать через торрент бесплатно

    Опубликовал: Админ | Дата: 5-01-2016, 04:01 | Просмотров: 59

    Производство: Ленфильм СССР
    Жанр: Боевик, Комедия, Криминал
    Режиссер: Игорь Масленников

    Актеры
    Василий Ливанов, Виталий Соломин, Рина Зеленая, Ирина Купченко, Никита Михалков, Алла Демидова, Светлана Крючкова, Александр Адабашьян, Борислав Брондуков, Евгений Стеблов

    Описание

    Труп Чарльза Баскервиля обнаруживают неподалеку от его родового поместья. О таком странном сюжете не догадывалась даже Тимошенко. Выражение нечеловеческого ужаса на лице покойника и следы крупной собаки поблизости заставляют вспомнить старинную легенду о проклятии, тяготеющем над родом Баскервилей. Шерлоку Холмсу предстоит докопаться до истины...

    Релиз от: NNM-CLUB (batonchik)
    Продолжительность: 02: 32: 25 (01: 16: 56 + 01: 15: 30)
    Качество видео: BDRip(batonchik)
    Язык субтитров: Русский, Английский
    Вид субтитров: вшитые, отключаемые
    Видео: AVC/H.264, 1000x720, ~3707 Кбит/сек
    Аудио: AC3, 6 ch, 384 Кбит/сек, CBR
    Код:

    Общее
    Полное имя :Шерлок Холмс и доктор Ватсон_Собака Баскервилей.1981.BDRip.720p.LQ.NNM-CLUBШерлок Холмс и доктор Ватсон_Собака Баскервилей.1981.BDRip.720p.LQ.NNM-CLUB_01.mkv
    Формат : Matroska
    Версия формата : Version 2
    Размер файла : 2, 19 Гбайт
    Продолжительность : 1 ч. Самое интересное в это истории, что об этом Ющенко ничего не знал. 16 м.
    Общий поток : 4073 Кбит/сек
    Название фильма : Шерлок Холмс и доктор Ватсон_Собака Баскервилей.1981.BDRip.720p.LQ.NNM-CLUB
    Дата кодирования : UTC 2016-01-04 14:31:11
    Программа кодирования : mkvmerge v7.7.0 (\'Six Voices\') 64bit built on Feb 28 2015 23:39:33
    Библиотека кодирования : libebml v1.3.1 + libmatroska v1.4.2
    Видео
    Идентификатор : 1
    Формат : AVC
    Формат/Информация : Advanced Video Codec
    Профиль формата :High@L4.1
    Параметр CABAC формата : Да
    Параметр ReFrames формата : 8 кадров
    Идентификатор кодека : V_MPEG4/ISO/AVC
    Продолжительность : 1 ч. 16 м.
    Битрейт : 3707 Кбит/сек
    Ширина : 1000 пикселей
    Высота : 720 пикселей
    Соотношение сторон : 1, 389
    Режим частоты кадров : Постоянный
    Частота кадров : 23, 976 кадра/сек
    Цветовое пространство : YUV
    Субдискретизация насыщенности : 4:2:0
    Битовая глубина : 8 бит
    Тип развёртки : Прогрессивная
    Бит/(Пиксели*Кадры) : 0.215
    Размер потока : 1, 94 Гбайт (89%)
    Заголовок : Шерлок Холмс и доктор Ватсон_Собака Баскервилей.1981.BDRip.720p.LQ.NNM-CLUB
    Библиотека кодирования : x264 core 148 r2638 7599210
    Настройки программы : cabac=1/ref=8/deblock=1:-3:-3/analyse=0x3:0x133/me=umh/subme=11/psy=1/psy_rd=1.00:0.15/mixed_ref=1/me_range=32/chroma_me=1/trellis=2/8x8dct=1/cqm=0/deadzone=21, 11/fast_pskip=0/chroma_qp_offset=-3/threads=12/lookahead_threads=2/sliced_threads=0/nr=0/decimate=1/interlaced=0/bluray_compat=0/constrained_intra=0/bframes=9/b_pyramid=2/b_adapt=2/b_bias=0/direct=3/weightb=1/open_gop=0/weightp=2/keyint=250/keyint_min=23/scenecut=40/intra_refresh=0/rc_lookahead=40/rc=2pass/mbtree=1/bitrate=3707/ratetol=1.0/qcomp=0.60/qpmin=0/qpmax=69/qpstep=4/cplxblur=20.0/qblur=0.5/vbv_maxrate=50000/vbv_bufsize=62500/nal_hrd=none/filler=0/ip_ratio=1.40/aq=1:0.90
    Язык : Russian
    Default : Нет
    Forced : Нет
    Аудио
    Идентификатор : 2
    Формат : AC-3
    Формат/Информация : Audio Coding 3
    Расширение режима : CM (complete main)
    Параметр Endianness формата : Big
    Идентификатор кодека : A_AC3
    Продолжительность : 1 ч. 16 м.
    Вид битрейта : Постоянный
    Битрейт : 384 Кбит/сек
    Каналы : 6 каналов
    Расположение каналов : Front: L C R, Side: L R, LFE
    Частота : 48, 0 КГц
    Метод сжатия : С потерями
    Размер потока : 211 Мбайт (9%)
    Язык : Russian
    Default : Нет
    Forced : Нет
    Текст #1
    Идентификатор : 3
    Формат : UTF-8
    Идентификатор кодека : S_TEXT/UTF8
    Идентификатор кодека/Информация : UTF-8 Plain Text
    Язык : Russian
    Default : Нет
    Forced : Нет
    Текст #2
    Идентификатор : 4
    Формат : UTF-8
    Идентификатор кодека : S_TEXT/UTF8
    Идентификатор кодека/Информация : UTF-8 Plain Text
    Язык : English
    Default : Нет
    Forced : Нет
    Меню
    00:00:00.000 : ru:Chapter 01
    00:05:38.087 : ru:Chapter 02
    00:12:47.767 : ru:Chapter 03
    00:19:43.807 : ru:Chapter 04
    00:25:50.257 : ru:Chapter 05
    00:36:35.651 : ru:Chapter 06
    00:42:28.295 : ru:Chapter 07
    00:49:08.236 : ru:Chapter 08
    00:53:26.119 : ru:Chapter 09
    01:00:04.392 : ru:Chapter 10
    01:03:24.675 : ru:Chapter 11
    01:07:25.666 : ru:Chapter 12
    01:15:59.000 : ru:Chapter 13


    Скриншоты для ознакомления




    Шерлок Холмс и доктор Ватсон: Собака Баскервилей (1981) BDRip [H.264/720p-LQ]
    загрузка...
    Рейтинг →
     (голосов: 1, оценка 5/5, голосовать можно 1 раз )

    Другие торренты по теме:

  • Линда Холмс | Шерлок Холмс. 5 минут на расследование (2017) [FB2]
  • Sherlock Holmes: Crimes and Punishments / Шерлок Холмс: Преступления и наказания (2014) [Ru / Multi] (1.0) SteamRip R.G. GameWorks скачать через торрент бесплатно
  • Sherlock Holmes: Crimes and Punishments / Шерлок Холмс: Преступления и наказания (2014) [Ru / En] (1.0) SteamRip R.G. Игроманы скачать через торрент бесплатно
  • Sherlock Holmes: Crimes and Punishments / Шерлок Холмс: Преступления и наказания (2014) [Ru / En] (1.0) Repack R.G. Механики скачать через торрент бесплатно
  • Sherlock Holmes: Crimes and Punishments / Шерлок Холмс: Преступления и наказания (2014) [Ru / En] (1.0.10897.0 Upd1) Repack R.G. Revenants скачать через торрент бесплатно
  • Шерлок Холмс: Игра теней / Sherlock Holmes: A Game of Shadows(2011) BDRip [1080p] ATV
  • Шерлок Холмс / Sherlock Holmes (2009) BDRip [1080p] ATV
  • Шерлок Холмс / Sherlock Holmes (2009) DVD5 [BD -> DVD] скачать через торрент бесплатно


    • Комментарии (0):

      Информация

      Информация

        Посетители, находящиеся в группе Гости, не могут оставлять комментарии в данной новости.

        ↓ Меню




        ↓ Опрос

        Вы добавили сайт в закладки?
        Да
        Нет


        Top 10 за месяц (Фильмы)