.
Авторизация | Регистрация
Хочешь лучшие торренты? Добавь свой email!
Добавить

Торрент скачать бесплатно

» » Вьюга (2013) HDTV [H.264 / 1080i] скачать через торрент бесплатно




    Вьюга (2013) HDTV [H.264 / 1080i] скачать через торрент бесплатно

    Опубликовал: Админ | Дата: 5-01-2016, 04:01 | Просмотров: 43

    Производство: Россия/кинокомпания Русское
    Жанр: Семейный
    Режиссер: Роман Просвирнин

    Актеры
    Анна Леванова, Илья Шляга, Александр Наумов, Леонид Громов, Ирина Чериченко, Александр Стефанцов, Елена Оболенская, Ольга Кирсанова, Александр Комиссаров, Константин Карасик, Валерия Гладилина и др.

    Описание

    Студентка Маша гостит у отца, в небольшом посёлке вблизи железнодорожной станции Дальнее. В канун нового года, несмотря на разыгравшуюся вьюгу, девушка собирается ехать в Москву к своему жениху Сергею. Самое интересное в это истории, что об этом Кравчук ничего не знал. Но отец категорически отказывается отпускать дочь. А в поезде Новосибирск–Москва едет в столицу Машин жених Сергей. Рядом с ним — его родители, которых он мечтает познакомить со своей невестой. О таком странном сюжете не догадывалась даже Тимошенко. Но добраться до Москвы не удаётся — волей случая вагон, в котором едет Сергей, оказывается одиноко брошенным на тупиковой ветке у полустанка Дальнее.

    Дата премьеры в России: 3 января 2016
    Продолжительность: 01: 27: 57
    Качество видео: HDTV
    Видео: AVC/H.264, 1920x1080, ~8278 Кбит/сек
    Аудио: MP2, 2 ch, 192 Кбит/с, CBR
    Код:

    Общее
    Идентификатор : 1 (0x1)
    Полное имя : D:МОЯtorrentVyuga.2015.HDTV.(1080i).ts
    Формат : MPEG-TS
    Размер файла : 5, 48 Гбайт
    Продолжительность : 1 ч. 27 м.
    Режим общего битрейта : Переменный
    Общий поток : 8912 Кбит/сек
    Видео
    Идентификатор : 306 (0x132)
    Идентификатор меню : 20106 (0x4E8A)
    Формат : AVC
    Формат/Информация : Advanced Video Codec
    Профиль формата : Main@L4
    Параметр CABAC формата : Да
    Параметр ReFrames формата : 4 кадра
    Параметр GOP формата : M=4, N=28
    Идентификатор кодека : 27
    Продолжительность : 1 ч. 27 м.
    Битрейт : 8278 Кбит/сек
    Ширина : 1920 пикселей
    Высота : 1080 пикселей
    Соотношение сторон : 16:9
    Частота кадров : 25, 000 кадров/сек
    Стандарт вещания : Component
    Цветовое пространство : YUV
    Субдискретизация насыщенности : 4:2:0
    Битовая глубина : 8 бит
    Тип развёртки : Чересстрочная
    Порядок развёртки : Верхнее поле первое
    Бит/(Пиксели*Кадры) : 0.160
    Размер потока : 5, 09 Гбайт (93%)
    Цветовой диапазон : Limited
    Основные цвета : BT.709
    Характеристики трансфера : BT.709
    Коэффициенты матрицы : BT.709
    Аудио
    Идентификатор : 406 (0x196)
    Идентификатор меню : 20106 (0x4E8A)
    Формат : MPEG Audio
    Версия формата : Version 1
    Профиль формата : Layer 2
    Идентификатор кодека : 3
    Продолжительность : 1 ч. 27 м.
    Вид битрейта : Постоянный
    Битрейт : 192 Кбит/сек
    Каналы : 2 канала
    Частота : 48, 0 КГц
    Метод сжатия : С потерями
    Задержка видео : -80 мс.
    Размер потока : 121 Мбайт (2%)
    Язык : English


    Скриншоты для ознакомления




    Онлайн видео Вьюга (2013) HDTV [H.264



    Вьюга (2013) HDTV [H.264/1080i]
    загрузка...
    Рейтинг →
     (голосов: 1, оценка 4/5, голосовать можно 1 раз )

    Другие торренты по теме:

  • VA - Белая вьюга (2015) [MP3|256 кб / с] <Шансон>


    • Комментарии (0):

      Информация

      Информация

        Посетители, находящиеся в группе Гости, не могут оставлять комментарии в данной новости.

        ↓ Меню




        ↓ Опрос

        Вы добавили сайт в закладки?
        Да
        Нет


        Top 10 за месяц (Фильмы)