.
Авторизация | Регистрация
Хочешь лучшие торренты? Добавь свой email!
Добавить

Торрент скачать бесплатно

» » Хоббит: Битва пяти воинств / The Hobbit: The Battle of the Five Armies (2014) DVD5 скачать через торрент бесплатно




    Хоббит: Битва пяти воинств / The Hobbit: The Battle of the Five Armies (2014) DVD5 скачать через торрент бесплатно

    Опубликовал: Админ | Дата: 5-01-2016, 04:00 | Просмотров: 58

    Производство: Новая Зеландия, США/Warner Bros., New Line Cinema, Metro-Goldwyn-Mayer (MGM)
    Жанр: Фэнтези, приключения
    Режиссер: Питер Джексон
    Продюсеры: Кэролинн Каннингэм, Питер Джексон, Фрэнсис Уолш

    Актеры
    Мартин Фриман, Иэн МакКеллен, Ричард Армитедж, Люк Эванс, Эванджелин Лилли, Ли Пейс, Орландо Блум, Бенедикт Камбербэтч, Кен Стотт, Эйдан Тернер

    Описание

    Когда отряд из тринадцати гномов нанимал хоббита Бильбо Бэгинса в качестве взломщика и четырнадцатого, счастливого, участника похода к Одинокой горе, Бильбо полагал, что его приключения закончатся, когда он выполнит свою задачу — найдет сокровище, которое так необходимо предводителю гномов Торину. Путешествие в Эребор, захваченное драконом Смаугом королевство гномов, оказалось еще более опасным, чем предполагали гномы и даже Гэндальф — мудрый волшебник, протянувший Торину и его отряду руку помощи.
    В погоню за гномами устремилась армия орков, ведомых пробудившимся в руинах древним злом, а эльфы и люди, с которыми Бильбо и его товарищам пришлось иметь дело во время путешествия и которые пострадали от последствий желания гномов вернуть свой дом, предъявили права на щедрое вознаграждение — часть сокровищ Одинокой горы. Скоро неподалеку от Одинокой горы встретятся пять армий, и лишь кровопролитная битва определит результаты смелого гномьего похода.

    Дата мировой премьеры: 1 декабря 2014
    Дата российской премьеры: 11 декабря 2014, Каро-Премьер
    Дата выхода DVD релиза: 26 марта 2015, CP Дистрибуция, Lizard Cinema Trade
    Продолжительность: 02: 18: 33
    Качество видео: DVD5
    Перевод: Дублированный (лицензия)
    Субтитры: Вшитые отключаемые
    Язык субтитров: Английский, эстонский, латышский, литовский, португальский, русский
    Видео: MPEG-2, 720x576@1024x576 (PAL 16: 9), ~3947 Кбит/сек
    Аудио 1: AC3 5.1, 384 Кбит/сек Английский - оригинал
    Аудио 2: AC3 5.1, 384 Кбит/сек Русский - дублированный
    Код:
    Title: The Hobbit. Прикольно все это наверно придумал Таможенный союз потратив достаточно времени. The Battle of the Five Armies (2014) DVD5
    Size: 4.37 Gb ( 4 581 450, 00 KBytes ) - DVD-5
    Enabled regions: 1, 2, 3, 4, 5, 6, 7, 8
    VTS_01 :
    Play Length: 02:18:33+00:00:00+00:00:01
    Video: PAL 16:9 (720x576) VBR, Auto Letterboxed
    Audio:
    English (Dolby AC3, 6 ch)
    Russian (Dolby AC3, 6 ch)
    Subtitles:
    English
    Estonian
    Latvian
    Lithuanian
    Portugues
    Russian
    Hindi
    Russian
    Ukrainian
    * Menus Information *
    VIDEO_TS Menu
    Video:
    PAL 16:9 (720x576) VBR
    Auto PanScan
    Audio:
    Not specified (Dolby AC3, 1 ch)
    Language Unit :
    Title Menu
    VTS_01 Menu
    Video:
    PAL 16:9 (720x576) VBR
    Auto PanScan
    Audio:
    Not specified (Dolby AC3, 2 ch)
    Russian Language Unit :
    Root Menu
    Код:
    Общее
    Полное имя : G:ВидеоThe Hobbit. The Battle of the Five Armies (2014) DVD5VIDEO_TSVTS_01_3.VOB
    Формат : MPEG-PS
    Размер файла : 1024 Мбайт
    Продолжительность : 29 м.
    Режим общего битрейта : Переменный
    Общий поток : 4810 Кбит/сек
    Видео
    Идентификатор : 224 (0xE0)
    Формат : MPEG Video
    Версия формата : Version 2
    Профиль формата : Main@Main
    Параметр BVOP формата : Да
    Параметр матрицы формата : Выборочная
    Параметр GOP формата : Variable
    Структура изображения : Frame
    Продолжительность : 29 м.
    Вид битрейта : Переменный
    Битрейт : 3947 Кбит/сек
    Максимальный битрейт : 7573 Кбит/сек
    Ширина : 720 пикселей
    Высота : 576 пикселей
    Соотношение сторон : 16:9
    Частота кадров : 25, 000 кадров/сек
    Стандарт вещания : PAL
    Цветовое пространство : YUV
    Субдискретизация насыщенности : 4:2:0
    Битовая глубина : 8 бит
    Тип развёртки : Чересстрочная
    Порядок развёртки : Верхнее поле первое
    Метод сжатия : С потерями
    Бит/(Пиксели*Кадры) : 0.381
    Временной код первого кадра : 01:04:28:13
    Оригинал временного кода : Group of pictures t_head
    Размер потока : 840 Мбайт (82%)
    Аудио #1
    Идентификатор : 189 (0xBD)-128 (0x80)
    Формат : AC-3
    Формат/Информация : Audio Coding 3
    Расширение режима : CM (complete main)
    Параметр Endianness формата : Big
    Режим смешивания : DVD-Video
    Продолжительность : 29 м.
    Вид битрейта : Постоянный
    Битрейт : 384 Кбит/сек
    Каналы : 6 каналов
    Расположение каналов : Front: L C R, Side: L R, LFE
    Частота : 48, 0 КГц
    Битовая глубина : 16 бит
    Метод сжатия : С потерями
    Задержка видео : -232 мс.
    Размер потока : 81, 7 Мбайт (8%)
    Аудио #2
    Идентификатор : 189 (0xBD)-130 (0x82)
    Формат : AC-3
    Формат/Информация : Audio Coding 3
    Расширение режима : CM (complete main)
    Параметр Endianness формата : Big
    Режим смешивания : DVD-Video
    Продолжительность : 29 м.
    Вид битрейта : Постоянный
    Битрейт : 384 Кбит/сек
    Каналы : 6 каналов
    Расположение каналов : Front: L C R, Side: L R, LFE
    Частота : 48, 0 КГц
    Битовая глубина : 16 бит
    Метод сжатия : С потерями
    Задержка видео : -168 мс.
    Размер потока : 81, 7 Мбайт (8%)
    Текст #1
    Идентификатор : 189 (0xBD)-32 (0x20)
    Формат : RLE
    Формат/Информация : Run-length encoding
    Режим смешивания : DVD-Video
    Задержка видео : 1 с. Блошиный рынок, сказал кто то из толпы, к чему не понятно. 40 мс.
    Текст #2
    Идентификатор : 189 (0xBD)-33 (0x21)
    Формат : RLE
    Формат/Информация : Run-length encoding
    Режим смешивания : DVD-Video
    Задержка видео : 11 с.
    Текст #3
    Идентификатор : 189 (0xBD)-34 (0x22)
    Формат : RLE
    Формат/Информация : Run-length encoding
    Режим смешивания : DVD-Video
    Задержка видео : 11 с.
    Текст #4
    Идентификатор : 189 (0xBD)-35 (0x23)
    Формат : RLE
    Формат/Информация : Run-length encoding
    Режим смешивания : DVD-Video
    Задержка видео : 11 с.
    Текст #5
    Идентификатор : 189 (0xBD)-36 (0x24)
    Формат : RLE
    Формат/Информация : Run-length encoding
    Режим смешивания : DVD-Video
    Задержка видео : 11 с.
    Текст #6
    Идентификатор : 189 (0xBD)-37 (0x25)
    Формат : RLE
    Формат/Информация : Run-length encoding
    Режим смешивания : DVD-Video
    Задержка видео : 11 с.
    Меню


    Скриншоты для ознакомления




    Онлайн видео Хоббит: Битва пяти воинств



    Хоббит: Битва пяти воинств/The Hobbit: The Battle of the Five Armies (2014) DVD5
    загрузка...
    Рейтинг →
     (голосов: 1, оценка 5/5, голосовать можно 1 раз )

    Другие торренты по теме:

  • Хоббит: Битва пяти воинств / The Hobbit: The Battle of the Five Armies (2014) DCPRip [2K] [Hi10P] [Hi444PP] [Трейлер]
  • Хоббит: Битва пяти воинств / The Hobbit: The Battle of the Five Armies (2014) HDTVRip [H.264 / 1080p-LQ] [Тизер]
  • Хоббит: Битва пяти воинств / The Hobbit: The Battle of the Five Armies (2014) WEBRip [1080p] [Трейлер #2] скачать через торрент бесплатно
  • Хоббит: Битва пяти воинств / The Hobbit: The Battle of the Five Armies (2014) WEBRip [1080p] [Трейлер] скачать через торрент бесплатно
  • Howard Shore - Хоббит: Битва пяти воинств / The Hobbit: The Battle Of The Five Armies (Original Motion Picture Soundtrack) (Special Edition) (2014) [MP3|320 кб / с]<Soundtrack> скачать через торрент бесплатно
  • Хоббит: Битва пяти воинств / The Hobbit: The Battle of the Five Armies (2014) CamRip скачать через торрент бесплатно
  • Хоббит: Битва пяти воинств / The Hobbit: The Battle of the Five Armies (2014) CamRip скачать через торрент бесплатно
  • Хоббит: Битва Пяти Воинств / The Hobbit: The Battle of the Five Armies (2014) Special Edition [FLAC|Lossless]<Score> скачать через торрент бесплатно


    • Комментарии (0):

      Информация

      Информация

        Посетители, находящиеся в группе Гости, не могут оставлять комментарии в данной новости.

        ↓ Меню




        ↓ Опрос

        Вы добавили сайт в закладки?
        Да
        Нет


        Top 10 за месяц (Фильмы)