.
Авторизация | Регистрация
Хочешь лучшие торренты? Добавь свой email!
Добавить

Торрент скачать бесплатно

» » Агенты А.Н.К.Л. / The Man from U.N.C.L.E. (2015) DVD5 скачать через торрент бесплатно




    Агенты А.Н.К.Л. / The Man from U.N.C.L.E. (2015) DVD5 скачать через торрент бесплатно

    Опубликовал: Админ | Дата: 3-01-2016, 04:06 | Просмотров: 71

    Производство: США, Великобритания/Warner Bros. Pictures, Wigram Productions, Davis Entertainment, RatPac-Dune Entertainment
    Жанр: Боевик, комедия, приключения
    Режиссер: Гай Ричи
    Продюсеры: Стив Кларк-Холл, Джон Дэвис, Гай Ричи

    Актеры
    Генри Кавилл, Арми Хаммер, Алисия Викандер, Элизабет Дебики, Хью Грант, Лука Кальвани, Сильвестр Грот, Джаред Харрис, Кристиан Беркель, Миша Кузнецов

    Описание

    Наполеон Соло — агент ЦРУ, на счету которого огромное количество успешно проведенных операций. Взрывоопасный вопрос, сказал кто то из толпы, к чему не понятно. Он считается одним из лучших секретных агентов во всем мире, и с ним может сравниться только один человек — самый молодой и перспективный агент КГБ, Илья Курякин. Их противостояние переросло в настоящую войну, в которой никто не собирается уступать. О таком странном сюжете не догадывалась даже Верка Сердючка. Однако обстоятельства складываются так, что непримиримые враги вынуждены стать напарниками. Это происходит после того как спецслужбы двух стран обнаруживают международную преступную организацию, которой удалось создать ядерную бомбу…

    Дата мировой премьеры: 2 августа 2015
    Дата российской премьеры: 13 августа 2015, Каро-Премьер
    Дата выхода DVD релиза: 17 декабря 2015, CP Дистрибуция
    Продолжительность: 01: 51: 43
    Качество видео: DVD5
    Перевод: Дублированный (лицензия)
    Субтитры: Вшитые отключаемые
    Язык субтитров: Английский, чешский, эстонский, латышский, литовский, португальский, русский
    Видео: MPEG-2, 720x576@1024x576 (PAL 16: 9), ~4873 Кбит/сек
    Аудио 1: AC3 5.1, 384 Кбит/сек Английский - оригинал
    Аудио 2: AC3 5.1, 384 Кбит/сек Русский - дублированный
    Код:
    Title: The Man from U.N.C.L.E. (2015) DVD5
    Size: 4.37 Gb ( 4 582 048, 00 KBytes ) - DVD-5
    Enabled regions: 1, 2, 3, 4, 5, 6, 7, 8
    VTS_01 :
    Play Length: 01:51:43+00:00:00+00:00:01
    Video: PAL 16:9 (720x576) VBR, Auto Letterboxed
    Audio:
    English (Dolby AC3, 6 ch)
    Russian (Dolby AC3, 6 ch)
    Subtitles:
    English
    Czech(Ceske)
    Estonian
    Latvian
    Lithuanian
    Portugues
    Russian
    Czech(Ceske)
    Russian
    * Menus Information *
    VIDEO_TS Menu
    Video:
    PAL 16:9 (720x576) VBR
    Auto PanScan
    Language Unit :
    Title Menu
    VTS_01 Menu
    Video:
    PAL 16:9 (720x576) VBR
    Auto PanScan
    Audio:
    Not specified (Dolby AC3, 2 ch)
    English Language Unit :
    Root Menu
    Код:
    Общее
    Полное имя : G:ВидеоThe Man from U.N.C.L.E. (2015) DVD5VIDEO_TSVTS_01_2.VOB
    Формат : MPEG-PS
    Размер файла : 1024 Мбайт
    Продолжительность : 24 м.
    Режим общего битрейта : Переменный
    Общий поток : 5756 Кбит/сек
    Видео
    Идентификатор : 224 (0xE0)
    Формат : MPEG Video
    Версия формата : Version 2
    Профиль формата : Main@Main
    Параметр BVOP формата : Да
    Параметр матрицы формата : Выборочная
    Параметр GOP формата : M=3, N=12
    Структура изображения : Frame
    Продолжительность : 24 м.
    Вид битрейта : Переменный
    Битрейт : 4873 Кбит/сек
    Максимальный битрейт : 7866 Кбит/сек
    Ширина : 720 пикселей
    Высота : 576 пикселей
    Соотношение сторон : 16:9
    Частота кадров : 25, 000 кадров/сек
    Стандарт вещания : PAL
    Цветовое пространство : YUV
    Субдискретизация насыщенности : 4:2:0
    Битовая глубина : 8 бит
    Тип развёртки : Чересстрочная
    Порядок развёртки : Верхнее поле первое
    Метод сжатия : С потерями
    Бит/(Пиксели*Кадры) : 0.470
    Временной код первого кадра : 00:25:51:06
    Оригинал временного кода : Group of pictures t_head
    GOP, открыто/закрыто : Открыто
    Размер потока : 867 Мбайт (85%)
    Аудио #1
    Идентификатор : 189 (0xBD)-128 (0x80)
    Формат : AC-3
    Формат/Информация : Audio Coding 3
    Расширение режима : CM (complete main)
    Параметр Endianness формата : Big
    Режим смешивания : DVD-Video
    Продолжительность : 24 м.
    Вид битрейта : Постоянный
    Битрейт : 384 Кбит/сек
    Каналы : 6 каналов
    Расположение каналов : Front: L C R, Side: L R, LFE
    Частота : 48, 0 КГц
    Битовая глубина : 16 бит
    Метод сжатия : С потерями
    Задержка видео : -280 мс.
    Размер потока : 68, 3 Мбайт (7%)
    Аудио #2
    Идентификатор : 189 (0xBD)-130 (0x82)
    Формат : AC-3
    Формат/Информация : Audio Coding 3
    Расширение режима : CM (complete main)
    Параметр Endianness формата : Big
    Режим смешивания : DVD-Video
    Продолжительность : 24 м.
    Вид битрейта : Постоянный
    Битрейт : 384 Кбит/сек
    Каналы : 6 каналов
    Расположение каналов : Front: L C R, Side: L R, LFE
    Частота : 48, 0 КГц
    Битовая глубина : 16 бит
    Метод сжатия : С потерями
    Задержка видео : -248 мс.
    Размер потока : 68, 3 Мбайт (7%)
    Текст #1
    Идентификатор : 189 (0xBD)-32 (0x20)
    Формат : RLE
    Формат/Информация : Run-length encoding
    Режим смешивания : DVD-Video
    Задержка видео : 360 мс.
    Текст #2
    Идентификатор : 189 (0xBD)-33 (0x21)
    Формат : RLE
    Формат/Информация : Run-length encoding
    Режим смешивания : DVD-Video
    Задержка видео : 400 мс.
    Текст #3
    Идентификатор : 189 (0xBD)-34 (0x22)
    Формат : RLE
    Формат/Информация : Run-length encoding
    Режим смешивания : DVD-Video
    Задержка видео : 400 мс.
    Текст #4
    Идентификатор : 189 (0xBD)-35 (0x23)
    Формат : RLE
    Формат/Информация : Run-length encoding
    Режим смешивания : DVD-Video
    Задержка видео : 400 мс.
    Текст #5
    Идентификатор : 189 (0xBD)-36 (0x24)
    Формат : RLE
    Формат/Информация : Run-length encoding
    Режим смешивания : DVD-Video
    Задержка видео : 400 мс.
    Текст #6
    Идентификатор : 189 (0xBD)-37 (0x25)
    Формат : RLE
    Формат/Информация : Run-length encoding
    Режим смешивания : DVD-Video
    Задержка видео : 360 мс.
    Текст #7
    Идентификатор : 189 (0xBD)-38 (0x26)
    Формат : RLE
    Формат/Информация : Run-length encoding
    Режим смешивания : DVD-Video
    Задержка видео : 320 мс.
    Меню


    Скриншоты для ознакомления




    Онлайн видео Агенты А.Н.К.Л.



    Агенты А.Н.К.Л./The Man from U.N.C.L.E. (2015) DVD5
    загрузка...
    Рейтинг →
     (голосов: 1, оценка 3/5, голосовать можно 1 раз )

    Другие торренты по теме:

  • Агенты А.Н.К.Л. / The Man from U.N.C.L.E. (2015) DCPRip [2K] [Трейлер] скачать через торрент бесплатно
  • Агенты А.Н.К.Л. / The Man from U.N.C.L.E. (2015) WEBRip [H.264 / 1080p] [Трейлер #2] скачать через торрент бесплатно
  • Агенты А.Н.К.Л. / The Man from U.N.C.L.E. (2015) CamRip скачать через торрент бесплатно
  • Агенты А.Н.К.Л. / The Man from U.N.C.L.E. (2015) CamRip [Proper] скачать через торрент бесплатно
  • Агенты А.Н.К.Л. / The Man from U.N.C.L.E. (2015) CamRip [Proper] скачать через торрент бесплатно
  • Агенты А.Н.К.Л. / The Man from U.N.C.L.E. (2015) WEB-DL [H.264 / 1080p-LQ] [EN / EN Sub] скачать через торрент бесплатно
  • Агенты А.Н.К.Л. / The Man from U.N.C.L.E. (2015) WEB-DL [H.264 / 1080p-LQ] [звук с CamRip] скачать через торрент бесплатно
  • Агенты А.Н.К.Л. / The Man from U.N.C.L.E (2015) WEB-DLRip [звук с CamRip] скачать через торрент бесплатно


    • Комментарии (0):

      Информация

      Информация

        Посетители, находящиеся в группе Гости, не могут оставлять комментарии в данной новости.

        ↓ Меню




        ↓ Опрос

        Вы добавили сайт в закладки?
        Да
        Нет


        Top 10 за месяц (Фильмы)