.
Авторизация | Регистрация
Хочешь лучшие торренты? Добавь свой email!
Добавить

Торрент скачать бесплатно

» » Снежный ангел (2007) DVDRip скачать через торрент бесплатно




    Снежный ангел (2007) DVDRip скачать через торрент бесплатно

    Опубликовал: Админ | Дата: 1-01-2016, 04:00 | Просмотров: 48

    Производство: Россия, Дирекция Кино
    Жанр: Комедия
    Режиссер: Александр Карпиловский

    Актеры
    Виктория Толстоганова, Александр Балуев, Анастасия Добрынина, Дмитрий Певцов, Евгения Добровольская, Станислав Дужников, Владимир Симонов, Инна Гомес, Дмитрий Мухамадеев, Татьяна Рудина, Ульяна Урванцева, Светлана Чуйкина, Валентина Шарыкина

    Описание

    Одинокая московская девушка Майя каждый Новый год уезжает в Санкт-Петербург – только чтобы не встречать праздник с подругами, которые пытаются выдать ее замуж. Но однажды она решает нарушить этот ритуал и сдает билет на поезд, решив таким образом изменить судьбу. Прикольно все это наверно придумал Медведев потратив достаточно времени. Судьба идет ей навстречу, и в канун новогодней ночи раздается звонок в дверь...

    Продолжительность: 01: 41: 05
    Качество видео: DVDRip
    Видео: Xvid, 688x384, ~1608 kbps
    Аудио: AC3, 6 ch, 384 kbps, CBR
    Семпл: Скачать
    Код:

    General
    Complete name: D:Snezhniy.Angel.2007.DVDRip.by_Virvulpo.NoNaMe.avi
    Format: AVI
    Format/Info: Audio Video Interleave
    File size: 1.41 GiB
    Duration: 1h 41mn
    Overall bit rate: 1 995 Kbps
    Movie name: Снежный ангел/2007/DVDRip
    Director: Virvulpo
    Writing application: VirtualDubMod 1.5.10.3 |www.virtualdub-fr.org|| (build 2550/release)
    Writing library: VirtualDubMod build 2550/release
    Copyright: NoNaMe Club
    Video
    ID: 0
    Format: MPEG-4 Visual
    Format profile: Advanced Simple@L5
    Format settings, BVOP: Yes
    Format settings, QPel: No
    Format settings, GMC: No warppoints
    Format settings, Matrix: Default (MPEG)
    Codec ID: XVID
    Codec ID/Hint: XviD
    Duration: 1h 41mn
    Bit rate: 1 602 Kbps
    Width: 688 pixels
    Height: 384 pixels
    Display aspect ratio: 16:9
    Frame rate: 25.000 fps
    Color space: YUV
    Chroma subsampling: 4:2:0
    Bit depth: 8 bits
    Scan type: Progressive
    Compression mode: Lossy
    Bits/(Pixel*Frame): 0.242
    Stream size: 1.13 GiB (80%)
    Writing library: XviD 1.2.1 (UTC 2008-12-04)
    Audio
    ID: 1
    Format: AC-3
    Format/Info: Audio Coding 3
    Mode extension: CM (complete main)
    Format settings, Endianness: Big
    Codec ID: 2000
    Duration: 1h 41mn
    Bit rate mode: Constant
    Bit rate: 384 Kbps
    Channel(s): 6 channels
    Channel positions: Front: L C R, Side: L R, LFE
    Sampling rate: 48.0 KHz
    Bit depth: 16 bits
    Compression mode: Lossy
    Stream size: 278 MiB (19%)
    Alignment: Split accross interleaves
    Interleave, duration: 40 ms (1.00 video frame)
    Interleave, preload duration: 500 ms


    Скриншоты для ознакомления




    Онлайн видео Метаморфозис (2015) WEB-DL [H.264



    Снежный ангел (2007) DVDRip
    загрузка...
    Рейтинг →
     (голосов: 1, оценка 3/5, голосовать можно 1 раз )

    Другие торренты по теме:

  • Елена Пименова | Снежный ангел (2011) [MP3]


    • Комментарии (0):

      Информация

      Информация

        Посетители, находящиеся в группе Гости, не могут оставлять комментарии в данной новости.

        ↓ Меню




        ↓ Опрос

        Вы добавили сайт в закладки?
        Да
        Нет


        Top 10 за месяц (Фильмы)