.
Авторизация | Регистрация
Хочешь лучшие торренты? Добавь свой email!
Добавить

Торрент скачать бесплатно

» » Марко Поло / Marco Polo (2016) WEBRip (сезон 2, серии 0 из 10) NewStudio (обновляемая) скачать через торрент бесплатно




    Марко Поло / Marco Polo (2016) WEBRip (сезон 2, серии 0 из 10) NewStudio (обновляемая) скачать через торрент бесплатно

    Опубликовал: Админ | Дата: 30-12-2015, 04:00 | Просмотров: 45

    Производство: США/Electus, Weinstein Company
    Жанр: драма, приключения, история
    Режиссер: Дэвид Петрарка, Алик Сахаров, Джон Мэйбери

    Актеры
    Бенедикт Вонг, Оливия Ченг, Джоан Чэнь, Чжу Чжу, Махеш Джаду, Лоренцо Рикельми, Реми Хий, Том Ву, Чин Хань и др.

    Описание

    Сюжет сериала основан на приключениях знаменитого исследователя Марко Поло в Китае в 13-м веке. Самое интересное в это истории, что об этом Лукашенко ничего не знал. Знаменитый исследователь оказался в центре жестокой войны, в мире боевых искусств, сексуальных интриг, грязной политики и нескончаемых сражений.

    Продолжительность: ~00: 50: 00 серия (0 серия 00: 27: 50)
    Качество видео: WEBRip
    Перевод: Многоголосый закадровый, профессиональный -NewStudio
    Автор перевода: Александра Цернант
    Видео: XviD, 720x400 (16: 9), ~1400 kb/s
    Аудио Rus: MPEG Layer 3, 48, 0 kHz, 2 ch, 128 kb/s — многоголосый закадровый
    Аудио Eng: MPEG Layer 3, 48, 0 kHz, 2 ch, 128 kb/s — оригинал
    Общее
    Полное имя : D: Марко Поло (сезон любимого сериала 2) Marco Polo (2016) WEBRip - NewStudioMarco.Polo.S02E00.WEBRip.Rus.Eng.DV.NewStudio.avi
    Формат : AVI
    Формат/Информация : Audio Video Interleave
    Размер файла : 334 Мбайт
    Продолжительность : 27 м.
    Общий поток : 1678 Кбит/сек
    Программа кодирования : VirtualDubModRus 1.5.10.2 (build 2542/release)
    Библиотека кодирования : VirtualDubMod build 2542/release
    Видео
    Идентификатор : 0
    Формат : MPEG-4 Visual
    Профиль формата : Advanced Simple@L5
    Параметр BVOP формата : 2
    Параметр QPel формата : Нет
    Параметр GMC формата : Без точки перехода
    Параметр матрицы формата : Default (MPEG)
    Идентификатор кодека : XVID
    Идентификатор кодека/Подсказка : XviD
    Продолжительность : 27 м.
    Битрейт : 1408 Кбит/сек
    Ширина : 720 пикселей
    Высота : 400 пикселей
    Соотношение сторон : 16: 9
    Частота кадров : 23, 976 (23976/1000) кадра/сек
    Цветовое пространство : YUV
    Субдискретизация насыщенности : 4: 2: 0
    Битовая глубина : 8 бит
    Тип развёртки : Прогрессивная
    Метод сжатия : С потерями
    Бит/(Пиксели*Кадры) : 0.204
    Размер потока : 280 Мбайт (84%)
    Библиотека кодирования : XviD 73
    Аудио #1
    Идентификатор : 1
    Формат : MPEG Audio
    Версия формата : Version 1
    Профиль формата : Layer 3
    Режим : Joint stereo
    Расширение режима : MS Stereo
    Идентификатор кодека : 55
    Идентификатор кодека/Подсказка : MP3
    Продолжительность : 27 м.
    Вид битрейта : Постоянный
    Битрейт : 128 Кбит/сек
    Каналы : 2 канала
    Частота : 48, 0 КГц
    Метод сжатия : С потерями
    Размер потока : 25, 5 Мбайт (8%)
    Выравнивание : Соединение по промежуткам
    Продолжительность промежутка : 42 мс. (1, 00 видеокадр)
    Время предзагрузки промежутка : 504 мс.
    Аудио #2
    Идентификатор : 2
    Формат : MPEG Audio
    Версия формата : Version 1
    Профиль формата : Layer 3
    Режим : Joint stereo
    Расширение режима : MS Stereo
    Идентификатор кодека : 55
    Идентификатор кодека/Подсказка : MP3
    Продолжительность : 27 м.
    Вид битрейта : Постоянный
    Битрейт : 128 Кбит/сек
    Каналы : 2 канала
    Частота : 48, 0 КГц
    Метод сжатия : С потерями
    Размер потока : 25, 5 Мбайт (8%)
    Выравнивание : Соединение по промежуткам
    Продолжительность промежутка : 42 мс. (1, 00 видеокадр)
    Время предзагрузки промежутка : 504 мс.


    Скриншоты для ознакомления




    Онлайн видео Марко Поло



    Марко Поло/Marco Polo (2016) WEBRip (сезон 2, серии 0 из 10) NewStudio (обновляемая)
    загрузка...
    Рейтинг →
     (голосов: 1, оценка 4/5, голосовать можно 1 раз )

    Другие торренты по теме:

  • Секретные материалы Марко Поло (Марко Поло. Загадки великого путешествия на Восток) / The Secret File of Marco Polo (2014) DVB
  • Марко Поло / Marco Polo (2014) WEBRip [H.264 / 720p-LQ] (Сезон 1, серии 1-2 из 10) (BaibaKo) (обновляемая) скачать через торрент бесплатно
  • Марко Поло / Marco Polo (2014) WEBRip [H.264 / 1080p-LQ] (сезон 1, серии 1-2 из 10) AlexFilm (обновляемая) скачать через торрент бесплатно
  • Марко Поло / Marco Polo (2014) WEBRip [H.264 / 720p-LQ] (Сезон 1, серии 1-2 из 10) (NewStudio) (обновляемая) скачать через торрент бесплатно
  • Марко Поло / Marco Polo (2014) WEBRip (сезон 1, серии 1-2 из 10) NewStudio (обновляемая) скачать через торрент бесплатно
  • Марко Поло / Marco Polo (2014) WEBRip [H.264 / 720p-LQ] (Сезон 1, серии 1-2 из 10) (AlexFilm) (обновляемая) скачать через торрент бесплатно
  • Марко Поло / Marco Polo (2014) WEBRip (Сезон 1, серии 01-02 из 10) (AlexFilm) (обновляемая) скачать через торрент бесплатно
  • Марко Поло / Marco Polo (2014) WEBRip (сезон 1, серии 1-2 из 10) BaibaKo (обновляемая) скачать через торрент бесплатно


    • Комментарии (0):

      Информация

      Информация

        Посетители, находящиеся в группе Гости, не могут оставлять комментарии в данной новости.

        ↓ Меню




        ↓ Опрос

        Вы добавили сайт в закладки?
        Да
        Нет


        Top 10 за месяц (Фильмы)