.
Авторизация | Регистрация
Хочешь лучшие торренты? Добавь свой email!
Добавить

Торрент скачать бесплатно

» » Однажды и навсегда (2013) WEB-DL [H.264 / 1080p-LQ] скачать через торрент бесплатно




    Однажды и навсегда (2013) WEB-DL [H.264 / 1080p-LQ] скачать через торрент бесплатно

    Опубликовал: Админ | Дата: 28-12-2015, 04:00 | Просмотров: 63

    Производство: Россия/Кинокомпания Русское
    Жанр: Мелодрама
    Режиссер: Артем Насыбулин

    Актеры
    Анна Леванова, Матвей Зубалевич, Сергей Губанов, Артём Крылов, Ирина Чериченко, Вадим Андреев, Юлия Юрченко, Екатерина Травова и др.

    Описание

    Казалось бы, все вокруг Маши складывается как нельзя лучше. После окончания института у нее хорошая работа в банке. Время пошло, сказал кто то из толпы, к чему не понятно. Есть жених – перспективный юрист Игорь. Вместе они уже планируют свадебное путешествие. Но неожиданно Маша становится свидетелем его измены. Одного предательства достаточно, чтобы порвать отношения. Личная жизнь дала трещину, зато у Маши успешно пошли дела на работе. Самое интересное в это истории, что об этом Папа Римский ничего не знал. Деловые качества и красоту молодой сотрудницы оценивает директор филиала Геннадий. Машу назначают начальником отдела...

    Дата премьеры в России: 8 декабря 2015
    Продолжительность: 01: 29: 58
    Качество видео: WEB-DL
    Видео: AVC/H.264, 1920x1080, ~2664 Кбит/сек
    Аудио: AC3, 2 ch, 192 Кбит/с, CBR
    Код:

    Общее
    Уникальный идентификатор : 140573021498020759550241531151078635090 (0x69C1610FD13ABD6A3A9192532F73B652)
    Полное имя : D:МОЯtorrentOdnazdy.i.navsegda.2015.WEB-DL.1080.mkv
    Формат : Matroska
    Версия формата : Version 4/Version 2
    Размер файла : 1, 83 Гбайт
    Продолжительность : 1 ч. 29 м.
    Общий поток : 2914 Кбит/сек
    Программа кодирования : Lavf56.25.101
    Библиотека кодирования : Lavf56.25.101
    Видео
    Идентификатор : 1
    Формат : AVC
    Формат/Информация : Advanced Video Codec
    Профиль формата : High@L4
    Параметр CABAC формата : Да
    Параметр ReFrames формата : 2 кадра
    Идентификатор кодека : V_MPEG4/ISO/AVC
    Продолжительность : 1 ч. 29 м.
    Битрейт : 2664 Кбит/сек
    Ширина : 1920 пикселей
    Высота : 1080 пикселей
    Соотношение сторон : 16:9
    Режим частоты кадров : Постоянный
    Частота кадров : 25, 000 кадров/сек
    Цветовое пространство : YUV
    Субдискретизация насыщенности : 4:2:0
    Битовая глубина : 8 бит
    Тип развёртки : Прогрессивная
    Бит/(Пиксели*Кадры) : 0.051
    Размер потока : 1, 67 Гбайт (91%)
    Default : Да
    Forced : Нет
    Цветовой диапазон : Limited
    Основные цвета : BT.709
    Характеристики трансфера : BT.709
    Коэффициенты матрицы : BT.709
    Аудио
    Идентификатор : 2
    Формат : AC-3
    Формат/Информация : Audio Coding 3
    Расширение режима : CM (complete main)
    Параметр Endianness формата : Big
    Идентификатор кодека : A_AC3
    Продолжительность : 1 ч. 29 м.
    Вид битрейта : Постоянный
    Битрейт : 192 Кбит/сек
    Каналы : 2 канала
    Расположение каналов : Front: L R
    Частота : 44, 1 КГц
    Метод сжатия : С потерями
    Задержка видео : 29 мс.
    Размер потока : 124 Мбайт (7%)
    Default : Да
    Forced : Нет


    Скриншоты для ознакомления




    Онлайн видео Однажды и навсегда (2013) WEB-DL [H.264



    Однажды и навсегда (2013) WEB-DL [H.264/1080p-LQ]
    загрузка...
    Рейтинг →
     (голосов: 1, оценка 3/5, голосовать можно 1 раз )

    Другие торренты по теме:

  • Однажды на свидании / Its A Date (2013) HDTVRip (Сезон 1, серии 1-4 из 8) [datynet & selena] (обновляемая)
  • Однажды в России. Выпуск 1 (2014.09.28) SATRip
  • Однажды в сказке / В Некотором Царстве / Once Upon A Time (2014) HDTVRip [сезон 4, серия 1 из ] LevshaFilm
  • Однажды в Сказке / В Некотором Царстве / Once Upon a Time (2013) WEB-DLRip [сезон 4, серии 1 из ] To4ka (обновляемая) скачать через торрент бесплатно
  • Однажды в России. Выпуск 2 (2014.10.05) SATRip скачать через торрент бесплатно
  • Однажды в России. Выпуск 2 (2014.10.05) WEB-DL [H.264 / 720p-LQ] [hand made 50fps] скачать через торрент бесплатно
  • Однажды в России. Выпуск 1 (2014.09.28) WEB-DL [H.264 / 720p-LQ] [hand made 50fps] скачать через торрент бесплатно
  • Однажды в России. Выпуск 3 (2014.10.12) WEB-DL [H.264 / 720p] [hand made 50fps]


    • Комментарии (0):

      Информация

      Информация

        Посетители, находящиеся в группе Гости, не могут оставлять комментарии в данной новости.

        ↓ Меню




        ↓ Опрос

        Вы добавили сайт в закладки?
        Да
        Нет


        Top 10 за месяц (Фильмы)