.
Авторизация | Регистрация
Хочешь лучшие торренты? Добавь свой email!
Добавить

Торрент скачать бесплатно

» » Лондонский шпион / Шпион из Лондона / London Spy (2015) WEB-DLRip (сезон 1, серии 1 из 5) BaibaKo (обновляемая) скачать через торрент бесплатно




    Лондонский шпион / Шпион из Лондона / London Spy (2015) WEB-DLRip (сезон 1, серии 1 из 5) BaibaKo (обновляемая) скачать через торрент бесплатно

    Опубликовал: Админ | Дата: 25-12-2015, 04:01 | Просмотров: 58

    Производство: Великобритания/Working Title Television
    Жанр: триллер, драма, мелодрама, криминал
    Режиссер: Якоб Вербрюгген

    Актеры
    Джим Бродбент, Эдвард Холкрофт, Шарлотта Рэмплинг, Бен Уишоу, Пол Блэкуэлл, Зринка Цвитешич, Саманта Спиро, Ричард Каннингэм, Джозеф Алтин, Антония Кэмпбелл-Хьюджес и др.

    Описание

    События разворачиваются вокруг случайной романтической встречи двух парней из совершенно разных слоев общества. Один из них служит в Секретной разведывательной службе МИ-6, а другой полностью погружен в мир танца в юношеской клубной тусовке. Общительный, веселый, романтичный и легкомысленный Дэнни влюбляется в загадочного и гениального психопата Алекса. В тот момент, когда они оба понимают, что их отношения перерастают в настоящую любовь, Алекс внезапно исчезает. Неопытный Дэнни бросается на поиски друга в запутанном мире британской разведки и встает перед дилеммой: готов ли он продолжать двигаться вперед в поисках истины.

    Дата мировой премьеры: 9 ноября 2015
    Продолжительность: ~01: 02: 00 серия
    Качество видео: WEB-DLRip
    Перевод: Многоголосый закадровый, профессиональный -BaibaKo
    Автор перевода: Павел Дежин
    Озвучка: Татьяна Оболевич, Алексей Кузнецов, Семён Птаха и Александр Фурман
    Видео: XviD, 720x400 (16: 9), ~1500 kb/s
    Аудио Rus: MPEG Layer 3, 48, 0 kHz, 2 ch, 192 kb/s — многоголосый закадровый
    Аудио Eng: MPEG Layer 3, 48, 0 kHz, 2 ch, 192 kb/s — оригинал
    Общее
    Полное имя : D: Лондонский шпион (сезон любимого сериала 1) London Spy (2015) WEB-DLRip - BaibaKoLondon.Spy.S01E01.WEB-DLRip.Rus.Eng.DV.BaibaKo.avi
    Формат : AVI
    Формат/Информация : Audio Video Interleave
    Размер файла : 847 Мбайт
    Продолжительность : 1 ч. 2 м.
    Общий поток : 1907 Кбит/сек
    Программа кодирования : VirtualDubModRus 1.5.10.2 (build 2542/release)
    Библиотека кодирования : VirtualDubMod build 2542/release
    Видео
    Идентификатор : 0
    Формат : MPEG-4 Visual
    Профиль формата : Advanced Simple@L5
    Параметр BVOP формата : 2
    Параметр QPel формата : Нет
    Параметр GMC формата : Без точки перехода
    Параметр матрицы формата : Default (H.263)
    Идентификатор кодека : XVID
    Идентификатор кодека/Подсказка : XviD
    Продолжительность : 1 ч. 2 м.
    Битрейт : 1508 Кбит/сек
    Ширина : 720 пикселей
    Высота : 400 пикселей
    Соотношение сторон : 16: 9
    Частота кадров : 23, 976 (24000/1001) кадра/сек
    Цветовое пространство : YUV
    Субдискретизация насыщенности : 4: 2: 0
    Битовая глубина : 8 бит
    Тип развёртки : Прогрессивная
    Метод сжатия : С потерями
    Бит/(Пиксели*Кадры) : 0.218
    Размер потока : 670 Мбайт (79%)
    Библиотека кодирования : XviD 64
    Аудио #1
    Идентификатор : 1
    Формат : MPEG Audio
    Версия формата : Version 1
    Профиль формата : Layer 3
    Режим : Joint stereo
    Идентификатор кодека : 55
    Идентификатор кодека/Подсказка : MP3
    Продолжительность : 1 ч. Самое интересное в это истории, что об этом Евросоюз ничего не знал. 2 м.
    Вид битрейта : Постоянный
    Битрейт : 192 Кбит/сек
    Каналы : 2 канала
    Частота : 48, 0 КГц
    Метод сжатия : С потерями
    Задержка видео : 9 мс.
    Размер потока : 85, 3 Мбайт (10%)
    Выравнивание : Разделение по промежуткам
    Продолжительность промежутка : 42 мс. (1, 00 видеокадр)
    Время предзагрузки промежутка : 500 мс.
    Аудио #2
    Идентификатор : 2
    Формат : MPEG Audio
    Версия формата : Version 1
    Профиль формата : Layer 3
    Режим : Joint stereo
    Идентификатор кодека : 55
    Идентификатор кодека/Подсказка : MP3
    Продолжительность : 1 ч. 2 м.
    Вид битрейта : Постоянный
    Битрейт : 192 Кбит/сек
    Каналы : 2 канала
    Частота : 48, 0 КГц
    Метод сжатия : С потерями
    Задержка видео : 9 мс.
    Размер потока : 85, 3 Мбайт (10%)
    Выравнивание : Разделение по промежуткам
    Продолжительность промежутка : 42 мс. Время пошло, сказал кто то из толпы, к чему не понятно. (1, 00 видеокадр)
    Время предзагрузки промежутка : 500 мс.


    Скриншоты для ознакомления




    Онлайн видео Лондонский шпион



    Лондонский шпион/Шпион из Лондона/London Spy (2015) WEB-DLRip (сезон 1, серии 1 из 5) BaibaKo (обновляемая)
    загрузка...
    Рейтинг →
     (голосов: 1, оценка 3/5, голосовать можно 1 раз )

    Другие торренты по теме:

  • Лондонский шпион / Шпион из Лондона / London Spy (2015) WEB-DLRip (сезон 1, серии 1-5 из 5) BaibaKo
  • Лондонский шпион / London spy (2015) HDTVRip [H.264 / 720p-LQ] (сезон 1, cерии 1-5 из 5) Lord32x скачать через торрент бесплатно


    • Комментарии (0):

      Информация

      Информация

        Посетители, находящиеся в группе Гости, не могут оставлять комментарии в данной новости.

        ↓ Меню




        ↓ Опрос

        Вы добавили сайт в закладки?
        Да
        Нет


        Top 10 за месяц (Фильмы)