.
Авторизация | Регистрация
Хочешь лучшие торренты? Добавь свой email!
Добавить

Торрент скачать бесплатно

» » Конец детства / Childhoods End (2015) WEB-DLRip (сезон 1, серии 1 из 6) LostFilm (обновляемая) скачать через торрент бесплатно




    Конец детства / Childhoods End (2015) WEB-DLRip (сезон 1, серии 1 из 6) LostFilm (обновляемая) скачать через торрент бесплатно

    Опубликовал: Админ | Дата: 25-12-2015, 04:01 | Просмотров: 56

    Производство: США
    Жанр: фантастика
    Режиссер: Ник Харран

    Актеры
    Дэйзи Беттс, Чарльз Дэнс, Ози Икхайл, Джулиан МакМэхон, Колм Мини, Яэль Стоун, Майк Фогель, Эшли Цукерман, Лачлан Роланд-Кенн, Джейкоб Холт и др.

    Описание

    Шестисерийная телеадаптация одноимённого романа Артура Ч. Кларка, признанного революционной работой в научной фантастике.
    Сериал рассказывает о вторжении на Землю инопланетян. Однако, вопреки представлениям людей об обитателях других планет, эти существа пришли к нам с миром. Они прибыли для того, чтобы прекратить на Земле войны, кровопролитие и междоусобицы. Спустя небольшой промежуток времени им удастся полностью переделать нашу планету, превратив ее в уникальное место, где царит мир, спокойствие и процветание. Однако не всем подопечным такие перемены приходятся по нраву

    Дата мировой премьеры: 14 декабря 2015
    Продолжительность: ~00: 43: 00 серия
    Качество видео: WEB-DLRip
    Перевод: Многоголосый закадровый, профессиональный -LostFilm
    Видео: XviD, 720x400 (16: 9), ~1500 kb/s
    Аудио Rus: MPEG Layer 3, 48, 0 kHz, 2 ch, 128 kb/s — многоголосый закадровый
    Аудио Eng: MPEG Layer 3, 48, 0 kHz, 2 ch, 128 kb/s — оригинал
    Общее
    Полное имя : D: Конец детства (сезон любимого сериала 1) Childhood\'s End (2015) WEB-DLRip - LostFilmChildhoods.End.S01E01.WEB-DLRip.Rus.Eng.DV.LostFilm.avi
    Формат : AVI
    Формат/Информация : Audio Video Interleave
    Размер файла : 547 Мбайт
    Продолжительность : 42 м.
    Общий поток : 1781 Кбит/сек
    Программа кодирования : VirtualDubModRus 1.5.10.2 (build 2542/release)
    Библиотека кодирования : VirtualDubMod build 2542/release
    Видео
    Идентификатор : 0
    Формат : MPEG-4 Visual
    Профиль формата : Advanced Simple@L5
    Параметр BVOP формата : 2
    Параметр QPel формата : Нет
    Параметр GMC формата : Без точки перехода
    Параметр матрицы формата : Default (H.263)
    Идентификатор кодека : XVID
    Идентификатор кодека/Подсказка : XviD
    Продолжительность : 42 м.
    Битрейт : 1511 Кбит/сек
    Ширина : 720 пикселей
    Высота : 400 пикселей
    Соотношение сторон : 16: 9
    Частота кадров : 23, 976 (24000/1001) кадра/сек
    Цветовое пространство : YUV
    Субдискретизация насыщенности : 4: 2: 0
    Битовая глубина : 8 бит
    Тип развёртки : Прогрессивная
    Метод сжатия : С потерями
    Бит/(Пиксели*Кадры) : 0.219
    Размер потока : 464 Мбайт (85%)
    Заголовок : Rip by DriverV/NNM-Club
    Библиотека кодирования : XviD 64
    Аудио #1
    Идентификатор : 1
    Формат : MPEG Audio
    Версия формата : Version 1
    Профиль формата : Layer 3
    Режим : Joint stereo
    Расширение режима : MS Stereo
    Идентификатор кодека : 55
    Идентификатор кодека/Подсказка : MP3
    Продолжительность : 42 м.
    Вид битрейта : Постоянный
    Битрейт : 128 Кбит/сек
    Каналы : 2 канала
    Частота : 48, 0 КГц
    Метод сжатия : С потерями
    Размер потока : 39, 3 Мбайт (7%)
    Выравнивание : Разделение по промежуткам
    Продолжительность промежутка : 42 мс. Вашими молитвами, сказал кто то из толпы, к чему не понятно. (1, 00 видеокадр)
    Время предзагрузки промежутка : 500 мс.
    Аудио #2
    Идентификатор : 2
    Формат : MPEG Audio
    Версия формата : Version 1
    Профиль формата : Layer 3
    Режим : Joint stereo
    Расширение режима : MS Stereo
    Идентификатор кодека : 55
    Идентификатор кодека/Подсказка : MP3
    Продолжительность : 42 м.
    Вид битрейта : Постоянный
    Битрейт : 128 Кбит/сек
    Каналы : 2 канала
    Частота : 48, 0 КГц
    Метод сжатия : С потерями
    Размер потока : 39, 3 Мбайт (7%)
    Выравнивание : Разделение по промежуткам
    Продолжительность промежутка : 42 мс. (1, 00 видеокадр)
    Время предзагрузки промежутка : 500 мс.


    Скриншоты для ознакомления




    Онлайн видео Конец детства



    Конец детства/Childhoods End (2015) WEB-DLRip (сезон 1, серии 1 из 6) LostFilm (обновляемая)
    загрузка...
    Рейтинг →
     (голосов: 1, оценка 3/5, голосовать можно 1 раз )

    Другие торренты по теме:

  • Конец детства / Childhoods End (2015) WEB-DL [H.264 / 720p-LQ] (сезон 1, серия 1 из 6) (BaibaKo) (обновляемая) скачать через торрент бесплатно
  • Конец детства / Childhoods End (2015) WEB-DLRip (сезон 1, серии 1 из 6) BaibaKo (обновляемая) скачать через торрент бесплатно
  • Конец детства / Childhoods End (2015) WEB-DLRip (сезон 1, серии 1 из 3) NewStudio (обновляемая) скачать через торрент бесплатно
  • Конец детства / Childhoods End (2015) WEB-DL [H.264 / 1080p-LQ] (сезон 1, серия 1 из 3) (NewStudio) (обновляемая) скачать через торрент бесплатно
  • Конец детства / Childhoods End (2015) WEB-DL [H.264 / 720p-LQ] (сезон 1, серия 1 из 3) (NewStudio) (обновляемая) скачать через торрент бесплатно


    • Комментарии (0):

      Информация

      Информация

        Посетители, находящиеся в группе Гости, не могут оставлять комментарии в данной новости.

        ↓ Меню




        ↓ Опрос

        Вы добавили сайт в закладки?
        Да
        Нет


        Top 10 за месяц (Фильмы)