.
Авторизация | Регистрация
Хочешь лучшие торренты? Добавь свой email!
Добавить

Торрент скачать бесплатно

» » Супермаркет / Superstore (2015) WEB-DL [H.264 / 720p-LQ] (сезон 1, серия 1 из 11) (BaibaKo) (обновляемая) скачать через торрент бесплатно




    Супермаркет / Superstore (2015) WEB-DL [H.264 / 720p-LQ] (сезон 1, серия 1 из 11) (BaibaKo) (обновляемая) скачать через торрент бесплатно

    Опубликовал: Админ | Дата: 24-12-2015, 04:00 | Просмотров: 38

    Производство: США
    Жанр: комедия
    Режиссер: Рубен Флейшер, Майкл Патрик Джэнн, Энди Экерман

    Актеры
    Америка Феррера, Бен Фельдман, Лорен Эш, Марк МакКинни, Колтон Данн, Нико Сантос, Николь Блум, Калико Кауахи, Линда Портер, Кристофер Риордан и др.

    Описание

    Сериал о большом разношёрстном коллективе работников супермаркета, которые на своём рабочем месте переживают множество приключений, несмотря на то, что территория их обитания ограничивается стенами магазина.

    Дата мировой премьеры: 30 ноября 2015
    Релиз от: BaibaKo
    Продолжительность: ~ 00: 21: 00 серия
    Качество видео: WEB-DL
    Перевод: Профессиональный многоголосый закадровый -BaibaKo
    Озвучка: Лира Грим, Юля Малахова, Алексей Кузнецов и Семён Птаха
    Автор перевода: Мария Назарко и Анна Макаренко (бюро переводов SM-Group)
    Формат: MKV
    Видео: AVC/H.264, 1280x720 (16: 9), ~3828 Kbps, ~0.173 bit/pixel
    Аудио Rus: AC3, 384 kbps, 6 ch, 48 kHz
    Аудио Eng: AC3, 384 kbps, 6 ch, 48 kHz
    Код:
    Общее
    Superstore - Супермаркет. Сезон 1. BaibaKo. 720pSuperstore.s01e01.WEB-DL.720p.Rus.Eng.BaibaKo.mkv
    Формат : Matroska
    Версия формата : Version 4/Version 2
    Размер файла : 722 Мбайт
    Продолжительность : 21 м.
    Общий поток : 4689 Кбит/сек
    Дата кодирования : UTC 2015-12-23 03:53:05
    Программа кодирования : mkvmerge v6.9.1 (\'Blue Panther\') 64bit built on Apr 18 2014 18:23:38
    Библиотека кодирования : libebml v1.3.0 + libmatroska v1.4.1
    Видео
    Идентификатор : 1
    Формат : AVC
    Формат/Информация : Advanced Video Codec
    Профиль формата :High@L3.1
    Параметр CABAC формата : Нет
    Параметр ReFrames формата : 2 кадра
    Идентификатор кодека : V_MPEG4/ISO/AVC
    Продолжительность : 21 м.
    Битрейт : 3828 Кбит/сек
    Ширина : 1280 пикселей
    Высота : 720 пикселей
    Соотношение сторон : 16:9
    Режим частоты кадров : Постоянный
    Частота кадров : 24, 000 кадра/сек
    Цветовое пространство : YUV
    Субдискретизация насыщенности : 4:2:0
    Битовая глубина : 8 бит
    Тип развёртки : Прогрессивная
    Бит/(Пиксели*Кадры) : 0.173
    Размер потока : 589 Мбайт (82%)
    Язык : English
    Default : Да
    Forced : Нет
    Цветовой диапазон : Limited
    Основные цвета : BT.709
    Характеристики трансфера : BT.709
    Коэффициенты матрицы : BT.709
    Аудио #1
    Идентификатор : 2
    Формат : AC-3
    Формат/Информация : Audio Coding 3
    Расширение режима : CM (complete main)
    Параметр Endianness формата : Big
    Идентификатор кодека : A_AC3
    Продолжительность : 21 м.
    Вид битрейта : Постоянный
    Битрейт : 384 Кбит/сек
    Каналы : 6 каналов
    Расположение каналов : Front: L C R, Side: L R, LFE
    Частота : 48, 0 КГц
    Метод сжатия : С потерями
    Размер потока : 59, 1 Мбайт (8%)
    Язык : Russian
    Default : Да
    Forced : Нет
    Аудио #2
    Идентификатор : 3
    Формат : AC-3
    Формат/Информация : Audio Coding 3
    Расширение режима : CM (complete main)
    Параметр Endianness формата : Big
    Идентификатор кодека : A_AC3
    Продолжительность : 21 м.
    Вид битрейта : Постоянный
    Битрейт : 384 Кбит/сек
    Каналы : 6 каналов
    Расположение каналов : Front: L C R, Side: L R, LFE
    Частота : 48, 0 КГц
    Метод сжатия : С потерями
    Размер потока : 59, 1 Мбайт (8%)
    Язык : English
    Default : Нет
    Forced : Нет


    Скриншоты для ознакомления




    Онлайн видео Супермаркет



    Супермаркет/Superstore (2015) WEB-DL [H.264/720p-LQ] (сезон 1, серия 1 из 11) (BaibaKo) (обновляемая)
    загрузка...
    Рейтинг →
     (голосов: 1, оценка 3/5, голосовать можно 1 раз )

    Другие торренты по теме:

  • Андрей Житков | Супермаркет (2015) [MP3] скачать через торрент бесплатно
  • Валерий Моисеев | Супермаркет (2016) [FB2, EPUB]


    • Комментарии (0):

      Информация

      Информация

        Посетители, находящиеся в группе Гости, не могут оставлять комментарии в данной новости.

        ↓ Меню




        ↓ Опрос

        Вы добавили сайт в закладки?
        Да
        Нет


        Top 10 за месяц (Фильмы)