.
Авторизация | Регистрация
Хочешь лучшие торренты? Добавь свой email!
Добавить

Торрент скачать бесплатно

» » Скалолазка / Рожденная мечтать (2013) WEB-DL [H.264 / 720p-LQ] (серии 1-6 из 8) (обновляемая) скачать через торрент бесплатно




    Скалолазка / Рожденная мечтать (2013) WEB-DL [H.264 / 720p-LQ] (серии 1-6 из 8) (обновляемая) скачать через торрент бесплатно

    Опубликовал: Админ | Дата: 24-12-2015, 04:00 | Просмотров: 58

    Производство: Россия/Кинокомпания Русское
    Жанр: мелодрама
    Режиссер: Андрей Селиванов

    Актеры
    Мария Аниканова, Дмитрий Щербина, Татьяна Космачёва, Станислав Бондаренко, Роман Ладнев, Александр Суворов, Лилия Разакова, Алина Кизиярова, Михаил Мартьянов, Ричард Бондарев, Дмитрий Никонов, Анастасия Сметанина, Сергей Генкин, Роман Хардиков, Дмитрий Павленко, Дмитрий Артаев, Юлия Яновская, Дмитрий Астапенко, Кристина Пакарина, Никита Абдулов и др.

    Описание

    Супруги Ирина и Леонид спасают маленькую девочку, чудом уцелевшую в автокатастрофе в горах. У пары нет своих детей, и, думая, что семья малышки погибла, они решаются удочерить ее и называют Ниной. Проходят годы, Нина вырастает настоящей красавицей. После трагической гибели Леонида, бывшего альпиниста, Ирина всю себя посвящает дочери. Ее огорчает лишь то, что девушка грезит романтикой гор и мечтает пойти по стопам Леонида – стать скалолазкой.. Тем временем, в далекой Осетии старый монах перед смертью находит родного брата Нины Михаила. Он признаётся, что, будучи врачом, отдал выжившую девочку на воспитание чужим людям..
    Дата премьеры: 18 декабря 2015
    Продолжительность: ~00: 45: 00 серия
    Качество видео: WEB-DL
    Видео: AVC/H.264, 1280x720 (16: 9), ~1725 Kbps
    Аудио: AC-3, 44.1 KHz, 2 ch, 192 Kbps, CBR
    Код:

    Формат : Matroska
    Версия формата : Version 4/Version 2
    Размер файла : 633 Мбайт
    Продолжительность : 45 м.
    Общий поток : 1956 Кбит/сек
    Программа кодирования : Lavf56.25.101
    Библиотека кодирования : Lavf56.25.101
    Видео
    Идентификатор : 1
    Формат : AVC
    Формат/Информация : Advanced Video Codec
    Профиль формата :High@L3.1
    Параметр CABAC формата : Да
    Параметр ReFrames формата : 1 кадр
    Идентификатор кодека : V_MPEG4/ISO/AVC
    Продолжительность : 45 м.
    Битрейт : 1725 Кбит/сек
    Ширина : 1280 пикселей
    Высота : 720 пикселей
    Соотношение сторон : 16:9
    Режим частоты кадров : Постоянный
    Частота кадров : 25, 000 кадров/сек
    Цветовое пространство : YUV
    Субдискретизация насыщенности : 4:2:0
    Битовая глубина : 8 бит
    Тип развёртки : Прогрессивная
    Бит/(Пиксели*Кадры) : 0.075
    Размер потока : 559 Мбайт (88%)
    Default : Да
    Forced : Нет
    Цветовой диапазон : Limited
    Основные цвета : BT.709
    Характеристики трансфера : BT.709
    Коэффициенты матрицы : BT.709
    Аудио
    Идентификатор : 2
    Формат : AC-3
    Формат/Информация : Audio Coding 3
    Расширение режима : CM (complete main)
    Параметр Endianness формата : Big
    Идентификатор кодека : A_AC3
    Продолжительность : 45 м.
    Вид битрейта : Постоянный
    Битрейт : 192 Кбит/сек
    Каналы : 2 канала
    Расположение каналов : Front: L R
    Частота : 44, 1 КГц
    Битовая глубина : 16 бит
    Метод сжатия : С потерями
    Размер потока : 62, 2 Мбайт (10%)
    Default : Да
    Forced : Нет


    Скриншоты для ознакомления




    Онлайн видео Скалолазка



    Скалолазка/Рожденная мечтать (2013) WEB-DL [H.264/720p-LQ] (серии 1-6 из 8) (обновляемая)
    загрузка...
    Рейтинг →
     (голосов: 1, оценка 5/5, голосовать можно 1 раз )

    Другие торренты по теме:

  • Скалолазка / Рожденная мечтать (2013) WEB-DL [H.264 / 1080p-LQ] (серии 1-6 из 8) (обновляемая) скачать через торрент бесплатно
  • Скалолазка / Рожденная мечтать (2013) WEB-DLRip (серии 1-6 из 8) (обновляемая) скачать через торрент бесплатно


    • Комментарии (0):

      Информация

      Информация

        Посетители, находящиеся в группе Гости, не могут оставлять комментарии в данной новости.

        ↓ Меню




        ↓ Опрос

        Вы добавили сайт в закладки?
        Да
        Нет


        Top 10 за месяц (Фильмы)