.
Авторизация | Регистрация
Хочешь лучшие торренты? Добавь свой email!
Добавить

Торрент скачать бесплатно

» » Временно недоступен (2015) HDTV [H.264 / 1080i-LQ] (серии 1-2 из 8) (обновляемая) скачать через торрент бесплатно




    Временно недоступен (2015) HDTV [H.264 / 1080i-LQ] (серии 1-2 из 8) (обновляемая) скачать через торрент бесплатно

    Опубликовал: Админ | Дата: 22-12-2015, 04:00 | Просмотров: 89

    Производство: Россия/Magic Factory
    Жанр: комедия
    Режиссер: Михаил Хлебородов

    Актеры
    Сергей Безруков, Дмитрий Дюжев, Вера Шпак, Екатерина Федулова, Валерия Ланская, Олег Тактаров, Ричард Бондарев, Дмитрий Хрусталёв, Георгий Мартиросян, Александр Тютин, Сергей Вершинин, Евгения Нохрина, Олег Чудницов, Елена Киркова, Александр Аноприков, Андрей Кивинов, Антон Ескин, Сергей Стёпин, Любовь Фирсова, Андрей Лебедев, Олег Макаров, Бесо Гатаев, Виктор Муравский, Игорь Маслов и др.

    Описание

    Если вы всего лишь мелкий чиновник или следователь следственного отдела, вам наверняка кажется, что ничего экстраординарного в вашей жизни произойти не может, потому что этого не может быть никогда. Но стоит сделать только один неверный шаг, совершить необдуманный поступок, сесть в случайную машину, обнаружить у себя чужие документы, и Ваша жизнь независимо от вас может изменить привычное русло и потечь в неизвестном направлении.

    Дата премьеры в России: 21 декабря 2015
    Продолжительность: ~00: 50: 00 серия
    Качество видео: HDTV
    Видео: AVC/H.264, 1920х1080 (16: 9), ~5500 kbps
    Аудио: AC3, 2 ch, 192 kbps, CBR
    Код:
    Общее
    Уникальный идентификатор : 182378903754653336914959651469041161087 (0x8934E631BEEBD37FA0A2E3FFCA69537F)
    Полное имя : E:DOWNLOADSВременно недоступен (2015) HDTV 1080Временно недоступен - 01 серия.mkv
    Формат : Matroska
    Версия формата : Version 2
    Размер файла : 2, 01 Гбайт
    Продолжительность : 49 м.
    Общий поток : 5803 Кбит/сек
    Дата кодирования : UTC 2015-12-21 18:25:45
    Программа кодирования : mkvmerge v7.8.0 (\'River Man\') 32bit built on Apr 3 2015 12:11:22
    Библиотека кодирования : libebml v1.3.1 + libmatroska v1.4.2
    Видео
    Идентификатор : 1
    Формат : AVC
    Формат/Информация : Advanced Video Codec
    Профиль формата : High@L4
    Параметр CABAC формата : Да
    Параметр ReFrames формата : 3 кадра
    Идентификатор кодека : V_MPEG4/ISO/AVC
    Продолжительность : 49 м.
    Битрейт : 5496 Кбит/сек
    Ширина : 1920 пикселей
    Высота : 1080 пикселей
    Соотношение сторон : 16:9
    Режим частоты кадров : Постоянный
    Частота кадров : 25, 000 кадров/сек
    Стандарт вещания : Component
    Цветовое пространство : YUV
    Субдискретизация насыщенности : 4:2:0
    Битовая глубина : 8 бит
    Тип развёртки : Чересстрочная
    Порядок развёртки : Верхнее поле первое
    Бит/(Пиксели*Кадры) : 0.106
    Размер потока : 1, 90 Гбайт (95%)
    Default : Да
    Forced : Нет
    Цветовой диапазон : Limited
    Основные цвета : BT.709
    Характеристики трансфера : BT.709
    Коэффициенты матрицы : BT.709
    Аудио
    Идентификатор : 2
    Формат : AC-3
    Формат/Информация : Audio Coding 3
    Расширение режима : CM (complete main)
    Параметр Endianness формата : Big
    Идентификатор кодека : A_AC3
    Продолжительность : 49 м.
    Вид битрейта : Постоянный
    Битрейт : 192 Кбит/сек
    Каналы : 2 канала
    Расположение каналов : Front: L R
    Частота : 48, 0 КГц
    Метод сжатия : С потерями
    Размер потока : 68, 0 Мбайт (3%)
    Default : Да
    Forced : Нет


    Скриншоты для ознакомления




    Онлайн видео Временно недоступен (2015) HDTV [H.264



    Временно недоступен (2015) HDTV [H.264/1080i-LQ] (серии 1-2 из 8) (обновляемая)
    загрузка...
    Рейтинг →
     (голосов: 1, оценка 5/5, голосовать можно 1 раз )

    Другие торренты по теме:

  • Временно недоступен (2015) WEB-DL [H.264 / 720p-LQ] (серии 1-6 из 8) (обновляемая) скачать через торрент бесплатно
  • Временно недоступен (2015) WEB-DLRip (серии 1-3 из 8) (обновляемая) скачать через торрент бесплатно
  • Временно недоступен (2015) HDTVRip [H.264] (серии 1-2 из 8) (обновляемая) скачать через торрент бесплатно
  • Временно недоступен (2015) HDTVRip (серии 1-2 из 8) (обновляемая) скачать через торрент бесплатно
  • Временно недоступен (2015) SATRip (серии 1-2 из 8) (обновляемая) скачать через торрент бесплатно
  • Временно недоступен (2015) WEB-DLRip [H.264] (серии 1-3 из 8) [MP4|720x400] скачать через торрент бесплатно
  • Временно недоступен (2015) WEB-DLRip [H.264] (серии 1-8 из 8) скачать через торрент бесплатно
  • Временно недоступен (2015) WEB-DLRip [H.264 / 1080p-LQ] (серии 1-8 из 8) скачать через торрент бесплатно


    • Комментарии (0):

      Информация

      Информация

        Посетители, находящиеся в группе Гости, не могут оставлять комментарии в данной новости.

        ↓ Меню




        ↓ Опрос

        Вы добавили сайт в закладки?
        Да
        Нет


        Top 10 за месяц (Фильмы)