.
Авторизация | Регистрация
Хочешь лучшие торренты? Добавь свой email!
Добавить

Торрент скачать бесплатно

» » Временно недоступен (2015) WEB-DL [H.264 / 720p-LQ] (серии 1-6 из 8) (обновляемая) скачать через торрент бесплатно




    Временно недоступен (2015) WEB-DL [H.264 / 720p-LQ] (серии 1-6 из 8) (обновляемая) скачать через торрент бесплатно

    Опубликовал: Админ | Дата: 22-12-2015, 04:00 | Просмотров: 129

    Телекомпания: Россия/Magic Factory
    Жанр: комедия
    Режиссер: Михаил Хлебородов

    Актеры
    Сергей Безруков, Дмитрий Дюжев, Вера Шпак, Екатерина Федулова, Валерия Ланская, Олег Тактаров, Ричард Бондарев, Дмитрий Хрусталёв, Георгий Мартиросян, Александр Тютин, Сергей Вершинин, Евгения Нохрина, Олег Чудницов, Елена Киркова, Александр Аноприков, Андрей Кивинов, Антон Ескин, Сергей Стёпин, Любовь Фирсова, Андрей Лебедев, Олег Макаров, Бесо Гатаев, Виктор Муравский, Игорь Маслов и др.

    Описание

    Московский чиновник по правовым вопросам в районной Администрации Вячеслав Золотов и следователь Следственного Комитета по Калининграду Антон Плетнев в один прекрасный день меняются местами, сами того не желая. Одному из них предстоит стать ревизором и провести проверку в провинциальном городе, второму, оставшемуся в больнице без документов, доказать, что он – это он. Вопрос в том, кто из них лучше справится со своей ролью, а главное, сумеют ли они оба вовремя и без потерь прекратить этот спектакль.

    Возраст: 12+
    Дата премьеры в России: 21 декабря 2015
    Продолжительность: ~00: 50: 00 серия
    Качество видео: WEB-DL
    Видео: AVC/H.264, 1280x720 (16: 9), ~2747 kb/s
    Аудио: AC3, 48, 0 kHz, 2 ch, 192 kbps
    Код:
    Общее
    Уникальный идентификатор : 205326424442814921372303969332890115162 (0x9A786E50D3FA99CB9652F3B116771C5A)
    Полное имя : D:РелизыVremenno.nedostupen.2015.WEB-DL.[720p].nnm-club1.seriya.mkv
    Формат : Matroska
    Версия формата : Version 2
    Размер файла : 1, 05 Гбайт
    Продолжительность : 50 м.
    Общий поток : 2998 Кбит/сек
    Дата кодирования : UTC 2015-12-21 12:29:46
    Программа кодирования : mkvmerge v5.8.0 (\'No Sleep/Pillow\') built on Sep 2 2012 15:37:04
    Библиотека кодирования : libebml v1.2.3 + libmatroska v1.3.0
    Видео
    Идентификатор : 1
    Формат : AVC
    Формат/Информация : Advanced Video Codec
    Профиль формата :High@L4.1
    Параметр CABAC формата : Да
    Параметр ReFrames формата : 4 кадра
    Идентификатор кодека : V_MPEG4/ISO/AVC
    Продолжительность : 50 м.
    Битрейт : 2747 Кбит/сек
    Ширина : 1280 пикселей
    Высота : 720 пикселей
    Соотношение сторон : 16:9
    Режим частоты кадров : Постоянный
    Частота кадров : 25, 000 кадров/сек
    Цветовое пространство : YUV
    Субдискретизация насыщенности : 4:2:0
    Битовая глубина : 8 бит
    Тип развёртки : Прогрессивная
    Бит/(Пиксели*Кадры) : 0.119
    Размер потока : 988 Мбайт (92%)
    Язык : Russian
    Default : Да
    Forced : Да
    Аудио
    Идентификатор : 2
    Формат : AC-3
    Формат/Информация : Audio Coding 3
    Расширение режима : CM (complete main)
    Параметр Endianness формата : Big
    Идентификатор кодека : A_AC3
    Продолжительность : 50 м.
    Вид битрейта : Постоянный
    Битрейт : 192 Кбит/сек
    Каналы : 2 канала
    Расположение каналов : Front: L R
    Частота : 48, 0 КГц
    Метод сжатия : С потерями
    Размер потока : 69, 0 Мбайт (6%)
    Язык : Russian
    Default : Да
    Forced : Да


    Скриншоты для ознакомления




    Онлайн видео Временно недоступен (2015) WEB-DL [H.264



    Временно недоступен (2015) WEB-DL [H.264/720p-LQ] (серии 1-6 из 8) (обновляемая)
    загрузка...
    Рейтинг →
     (голосов: 1, оценка 4/5, голосовать можно 1 раз )

    Другие торренты по теме:

  • Временно недоступен (2015) WEB-DLRip (серии 1-3 из 8) (обновляемая) скачать через торрент бесплатно
  • Временно недоступен (2015) HDTVRip [H.264] (серии 1-2 из 8) (обновляемая) скачать через торрент бесплатно
  • Временно недоступен (2015) HDTVRip (серии 1-2 из 8) (обновляемая) скачать через торрент бесплатно
  • Временно недоступен (2015) HDTV [H.264 / 1080i-LQ] (серии 1-2 из 8) (обновляемая) скачать через торрент бесплатно
  • Временно недоступен (2015) SATRip (серии 1-2 из 8) (обновляемая) скачать через торрент бесплатно
  • Временно недоступен (2015) WEB-DLRip [H.264] (серии 1-3 из 8) [MP4|720x400] скачать через торрент бесплатно
  • Временно недоступен (2015) WEB-DLRip [H.264] (серии 1-8 из 8) скачать через торрент бесплатно
  • Временно недоступен (2015) WEB-DLRip [H.264 / 1080p-LQ] (серии 1-8 из 8) скачать через торрент бесплатно


    • Комментарии (0):

      Информация

      Информация

        Посетители, находящиеся в группе Гости, не могут оставлять комментарии в данной новости.

        ↓ Меню




        ↓ Опрос

        Вы добавили сайт в закладки?
        Да
        Нет


        Top 10 за месяц (Фильмы)