.
Авторизация | Регистрация
Хочешь лучшие торренты? Добавь свой email!
Добавить

Торрент скачать бесплатно

» » Миссия невыполнима: Племя изгоев / Mission: Impossible - Rogue Nation (2015) DVD9 [BD -> DVD] скачать через торрент бесплатно




    Миссия невыполнима: Племя изгоев / Mission: Impossible - Rogue Nation (2015) DVD9 [BD -> DVD] скачать через торрент бесплатно

    Опубликовал: Админ | Дата: 21-12-2015, 04:00 | Просмотров: 51

    Производство: США, Китай/Paramount Pictures, Skydance Productions, China Movie Channel, Alibaba Pictures Group, Bad Robot
    Жанр: Боевик, триллер, приключения
    Режиссер: Кристофер МакКуорри
    Продюсеры: Джей Джей Абрамс, Брайан Берк, Том Круз

    Актеры
    Том Круз, Ребекка Фергюсон, Саймон Пегг, Джереми Реннер, Винг Реймз, Шон Харрис, Алек Болдуин, Саймон МакБерни, Йенс Хультен, Том Холландер

    Описание

    Когда ОМН распускают, и Итан Хант остается не у дел, его команда неожиданно сталкивается с разветвленной международной сетью высокопрофессиональных спецагентов — Синдикатом. В ногах правды нет, сказал кто то из толпы, к чему не понятно. Это племя изгоев одержимо идеей установления нового мирового порядка и планирует серию разрушительных терактов. Итан и компания объединяются с дискредитированным британским агентом Ильзой Фауст и приступают к своей самой невыполнимой миссии…

    Дата мировой премьеры: 23 июля 2015
    Дата российской премьеры: 6 августа 2015, Централ Партнершип
    Продолжительность: 02: 11: 25
    Качество видео: DVD9 BD - DVD
    Перевод: Профессиональный (полное дублирование) + Авторский (одноголосый, закадровый) (Ю. Живов)
    Субтитры: Вшитые отключаемые
    Язык субтитров: Русский, английский, украинский
    Доп. материалы: Отсутствуют
    Видео: MPEG-2, 720x480@853x480 (NTSC 16: 9), ~6900 Кбит/сек
    Аудио 1: AC3 5.1, 448 Кбит/сек Русский - дублированный
    Аудио 2: AC3 5.1, 448 Кбит/сек Английский - оригинал
    Аудио 3: DTS 5.1, 755 Кбит/сек Русский - одноголосый закадровый, Ю. Живов
    Код:
    Title: Mission. Impossible - Rogue Nation (2015) DVD9 [BD-DVD]
    Size: 7.75 Gb ( 8 122 010, 00 KBytes ) - DVD-9
    Enabled regions: 1, 2, 3, 4, 5, 6, 7, 8
    VTS_01 :
    Play Length: 02:11:25
    Video: NTSC 16:9 (720x480) VBR, Auto Letterboxed
    Audio:
    Russian (Dolby AC3, 6 ch)
    English (Dolby AC3, 6 ch)
    Russian (DTS, 6 ch)
    Subtitles:
    Russian
    English
    Ukrainian
    Russian
    * Menus Information *
    VIDEO_TS Menu
    Video:
    NTSC 16:9 (720x480) VBR
    Auto Letterboxed
    Audio:
    Not specified (Dolby AC3, 6 ch)
    Russian Language Unit :
    Title Menu
    VTS_01 Menu
    Video:
    NTSC 16:9 (720x480) VBR
    Auto Letterboxed
    Audio:
    Not specified (Dolby AC3, 2 ch)
    Russian Language Unit :
    Root Menu
    Audio Menu
    Chapter (PTT) Menu
    Код:
    Общее
    Полное имя : F:ВидеоMission. Impossible - Rogue Nation (2015) DVD9 [BD-DVD]VIDEO_TSVTS_01_5.VOB
    Формат : MPEG-PS
    Размер файла : 1024 Мбайт
    Продолжительность : 16 м.
    Режим общего битрейта : Переменный
    Общий поток : 8806 Кбит/сек
    Видео
    Идентификатор : 224 (0xE0)
    Формат : MPEG Video
    Версия формата : Version 2
    Профиль формата : Main@Main
    Параметр BVOP формата : Да
    Параметр матрицы формата : Выборочная
    Параметр GOP формата : Variable
    Продолжительность : 16 м.
    Вид битрейта : Переменный
    Битрейт : 6980 Кбит/сек
    Максимальный битрейт : 8000 Кбит/сек
    Ширина : 720 пикселей
    Высота : 480 пикселей
    Соотношение сторон : 16:9
    Частота кадров : 23, 976 кадра/сек
    Стандарт вещания : NTSC
    Цветовое пространство : YUV
    Субдискретизация насыщенности : 4:2:0
    Битовая глубина : 8 бит
    Тип развёртки : Прогрессивная
    Порядок развёртки : 2:3 Pulldown
    Метод сжатия : С потерями
    Бит/(Пиксели*Кадры) : 0.842
    Временной код первого кадра : 01:08:58:21
    Оригинал временного кода : Group of pictures t_head
    Размер потока : 812 Мбайт (79%)
    Аудио #1
    Идентификатор : 189 (0xBD)-128 (0x80)
    Формат : AC-3
    Формат/Информация : Audio Coding 3
    Расширение режима : CM (complete main)
    Параметр Endianness формата : Big
    Режим смешивания : DVD-Video
    Продолжительность : 16 м.
    Вид битрейта : Постоянный
    Битрейт : 448 Кбит/сек
    Каналы : 6 каналов
    Расположение каналов : Front: L C R, Side: L R, LFE
    Частота : 48, 0 КГц
    Битовая глубина : 16 бит
    Метод сжатия : С потерями
    Задержка видео : -490 мс.
    Размер потока : 52, 1 Мбайт (5%)
    Аудио #2
    Идентификатор : 189 (0xBD)-129 (0x81)
    Формат : AC-3
    Формат/Информация : Audio Coding 3
    Расширение режима : CM (complete main)
    Параметр Endianness формата : Big
    Режим смешивания : DVD-Video
    Продолжительность : 16 м.
    Вид битрейта : Постоянный
    Битрейт : 448 Кбит/сек
    Каналы : 6 каналов
    Расположение каналов : Front: L C R, Side: L R, LFE
    Частота : 48, 0 КГц
    Битовая глубина : 16 бит
    Метод сжатия : С потерями
    Задержка видео : -490 мс.
    Размер потока : 52, 1 Мбайт (5%)
    Аудио #3
    Идентификатор : 189 (0xBD)-138 (0x8A)
    Формат : DTS
    Формат/Информация : Digital Theater Systems
    Режим : 16
    Параметр Endianness формата : Big
    Режим смешивания : DVD-Video
    Продолжительность : 16 м.
    Вид битрейта : Постоянный
    Битрейт : 755 Кбит/сек
    Каналы : 6 каналов
    Расположение каналов : Front: L C R, Side: L R, LFE
    Частота : 48, 0 КГц
    Битовая глубина : 24 бит
    Метод сжатия : С потерями
    Задержка видео : -544 мс.
    Размер потока : 87, 7 Мбайт (9%)
    Текст #1
    Идентификатор : 189 (0xBD)-32 (0x20)
    Формат : RLE
    Формат/Информация : Run-length encoding
    Режим смешивания : DVD-Video
    Продолжительность : 16 м.
    Задержка видео : 11 с.
    Текст #2
    Идентификатор : 189 (0xBD)-34 (0x22)
    Формат : RLE
    Формат/Информация : Run-length encoding
    Режим смешивания : DVD-Video
    Продолжительность : 16 м.
    Задержка видео : 11 с.
    Текст #3
    Идентификатор : 189 (0xBD)-33 (0x21)
    Формат : RLE
    Формат/Информация : Run-length encoding
    Режим смешивания : DVD-Video
    Меню


    Скриншоты для ознакомления




    Онлайн видео Миссия невыполнима: Племя изгоев



    Миссия невыполнима: Племя изгоев/Mission: Impossible - Rogue Nation (2015) DVD9 [BD -> DVD]
    загрузка...
    Рейтинг →
     (голосов: 1, оценка 3/5, голосовать можно 1 раз )

    Другие торренты по теме:

  • Миссия: невыполнима 5 / Mission: Impossible 5 (2015) WEBRip [1080p] [Трейлер] [EN] скачать через торрент бесплатно
  • Миссия невыполнима: Племя изгоев / Mission: Impossible - Rogue Nation (2015) WEBRip [1080p] [Трейлер] скачать через торрент бесплатно
  • Миссия невыполнима: Племя изгоев / Mission: Impossible - Rogue Nation (2015) WEBRip [H.264 / 1080p] [Трейлер #2] скачать через торрент бесплатно
  • Миссия невыполнима: Племя изгоев / Mission: Impossible - Rogue Nation (2015) DCPRip [2К] [Трейлер] скачать через торрент бесплатно
  • Миссия невыполнима: Племя изгоев / Mission: Impossible - Rogue Nation (2015) TS [EN] скачать через торрент бесплатно
  • Миссия невыполнима: Протокол Фантом / Mission: Impossible - Ghost Protocol (2011) HDRip [AVO] скачать через торрент бесплатно
  • Миссия невыполнима 3 / Mission: Impossible 3 (2006) HDRip [AVO] скачать через торрент бесплатно
  • Миссия невыполнима / Mission: Impossible (1996) HDRip [AVO] скачать через торрент бесплатно


    • Комментарии (0):

      Информация

      Информация

        Посетители, находящиеся в группе Гости, не могут оставлять комментарии в данной новости.

        ↓ Меню




        ↓ Опрос

        Вы добавили сайт в закладки?
        Да
        Нет


        Top 10 за месяц (Фильмы)