.
Авторизация | Регистрация
Хочешь лучшие торренты? Добавь свой email!
Добавить

Торрент скачать бесплатно

» » Полуденный паром / Keskpaevane praam (1967) DVDRip [EST / Rus Sub] скачать через торрент бесплатно




    Полуденный паром / Keskpaevane praam (1967) DVDRip [EST / Rus Sub] скачать через торрент бесплатно

    Опубликовал: Админ | Дата: 21-12-2015, 04:00 | Просмотров: 108

    Производство: СССР, Таллинфильм
    Жанр: драма
    Режиссер: Кальо Кийск

    Актеры
    Энн Краам, Керсти Герн, Ада Лундвер, Эйно Тамберг, Уно Лойт, Леа Унт, Арне Лаос, Калью Караск, Хейно Арус, Роберт Гутман, Рудольф Аллаберт, Кальо Комиссаров, Тыну Карк, Милви Крузе-Бродская, Маре Гаршнек-Хелластэ, Лев Жуков, Хельмут Вааг, Эха Сикк-Кард, Руут Тармо, Пауль Руубель, Малле Моисеева, Рут Репнау, Айме Тюкк, Николай Крюков

    Описание

    Из-за небрежности беспечной влюбленной пары на перегруженном пароме загорается машина с хлопком. Трагичность положения усугубляется тем, что рядом стоят две цистерны с бензином, которые по знакомству разрешил погрузить штурман парома. Вот-вот может произойти взрыв и тогда погибнут десятки людей. Капитан отдаёт приказ высадить детей и женщин в шлюпку, а также столкнуть в воду горящий грузовик, цистерны,
    личные машины - всё, что может увеличить силу взрыва...
    В этой острой критической ситуации по-разному раскрываются духовные качества персонажей фильма. Некоторые оказываются трусами, некоторые думают только о себе, о своем имуществе, личной выгоде. Иные, наоборот, оказываются храбрыми, честными, самоотверженными...

    Релиз от: ФЕНИКС
    Продолжительность: 01: 12: 50
    Качество видео: DVDRip
    Перевод: Отсутствует
    Язык озвучки: Эстонский
    Язык субтитров: Русский
    Вид субтитров: Отдельным файлом, отключаемые
    Видео: Xvid, 720x304, ~2788 Кбит/сек
    Аудио: AC3, 2 ch, 224 Кбит/сек, CBR
    Код:

    Общее
    Полное имя : K:Полуденный паром (1967) DVDRipПолуденный паром (1967) DVDRip.avi
    Формат : AVI
    Формат/Информация : Audio Video Interleave
    Размер файла : 1, 54 Гбайт
    Продолжительность : 1 ч. 12 м.
    Общий поток : 3022 Кбит/сек
    Программа кодирования : VirtualDubMod 1.5.10.2 (build 2540/release)
    Библиотека кодирования : VirtualDubMod build 2540/release
    Видео
    Идентификатор : 0
    Формат : MPEG-4 Visual
    Профиль формата : Advanced Simple@L5
    Параметр BVOP формата : 2
    Параметр QPel формата : Нет
    Параметр GMC формата : Без точки перехода
    Параметр матрицы формата : Default (H.263)
    Идентификатор кодека : XVID
    Идентификатор кодека/Подсказка : XviD
    Продолжительность : 1 ч. 12 м.
    Битрейт : 2788 Кбит/сек
    Ширина : 720 пикселей
    Высота : 304 пикселя
    Соотношение сторон : 2, 35:1
    Частота кадров : 25, 000 кадров/сек
    Цветовое пространство : YUV
    Субдискретизация насыщенности : 4:2:0
    Битовая глубина : 8 бит
    Тип развёртки : Прогрессивная
    Метод сжатия : С потерями
    Бит/(Пиксели*Кадры) : 0.510
    Размер потока : 1, 42 Гбайт (92%)
    Библиотека кодирования : XviD 73
    Аудио
    Идентификатор : 1
    Формат : AC-3
    Формат/Информация : Audio Coding 3
    Расширение режима : CM (complete main)
    Параметр Endianness формата : Big
    Идентификатор кодека : 2000
    Продолжительность : 1 ч. 12 м.
    Вид битрейта : Постоянный
    Битрейт : 224 Кбит/сек
    Каналы : 2 канала
    Расположение каналов : Front: L R
    Частота : 48, 0 КГц
    Метод сжатия : С потерями
    Размер потока : 117 Мбайт (7%)
    Выравнивание : Разделение по промежуткам
    Продолжительность промежутка : 40 мс. (1, 00 видеокадр)
    Время предзагрузки промежутка : 500 мс.
    Общее
    Полное имя : K:Полуденный паром (1967) DVDRipПолуденный паром (1967) DVDRip.srt
    Формат : SubRip
    Размер файла : 52, 7 Кбайт
    Текст
    Формат : SubRip
    Метод сжатия : Без потерь


    Скриншоты для ознакомления




    Онлайн видео Полуденный паром



    Полуденный паром/Keskpaevane praam (1967) DVDRip [EST/Rus Sub]
    загрузка...
    Рейтинг →
     (голосов: 1, оценка 4/5, голосовать можно 1 раз )

    Другие торренты по теме:

  • Наталья Солнцева | Полуденный демон (2015) [MP3]


    • Комментарии (0):

      Информация

      Информация

        Посетители, находящиеся в группе Гости, не могут оставлять комментарии в данной новости.

        ↓ Меню




        ↓ Опрос

        Вы добавили сайт в закладки?
        Да
        Нет


        Top 10 за месяц (Фильмы)