.
Авторизация | Регистрация
Хочешь лучшие торренты? Добавь свой email!
Добавить

Торрент скачать бесплатно

» » На гребне волны / Point Break (2015) CamRip [VO] скачать через торрент бесплатно




    На гребне волны / Point Break (2015) CamRip [VO] скачать через торрент бесплатно

    Опубликовал: Админ | Дата: 20-12-2015, 04:02 | Просмотров: 87

    Производство: США, Alcon Entertainment, DMG Entertainment, Ehman Productions
    Жанр: Боевик, Триллер, Криминал
    Режиссер: Эриксон Кор

    Актеры
    Люк Брэйси, Эдгар Рамирес, Рэй Уинстоун, Тереза Палмер, Делрой Линдо, Тобиас Зантелманн

    Описание

    Таинственная банда экстремалов, среди белого дня, совершает ограбления банков. Полиция и ФБР поражены профессиональностью и скоростью проведения преступлений.
    Следствие ведет молодой и претенциозный агент ФБР, который, рискуя жизнью, внедряется в банду и раскрывает это дело, но неожиданно для самого себя он осознает, что вернуться к нормальной жизни он уже не сможет.

    Дата мировой премьеры: 25 декабря 2015
    Дата премьеры в России: 31 декабря 2015, Каро-Премьер
    Продолжительность: 01: 38: 00
    Качество видео: CamRip
    Перевод: Любительский (одноголосый, закадровый) -Данис Нурмухаметов
    Вид субтитров: Вшитые, неотключаемые
    Язык субтитров: Китaйский
    Видео: XviD, 720x304, 1791 Kbps
    Аудио: AC3, 48 KHz, 2 ch, 192 Kbps, CBR
    Код:
    Общее
    Полное имя : D:DowloandsВидеоPoint.Break.2015.CAMRip.VO.Nurmukhametov.avi
    Формат : AVI
    Формат/Информация : Audio Video Interleave
    Размер файла : 1, 36 Гбайт
    Продолжительность : 1 ч. Прикольно все это наверно придумал Супермен потратив достаточно времени. 38 м.
    Общий поток : 1992 Кбит/сек
    Программа кодирования : VirtualDubMod 1.5.10.2 (build 2540/release)
    Библиотека кодирования : VirtualDubMod build 2540/release
    Видео
    Идентификатор : 0
    Формат : MPEG-4 Visual
    Профиль формата : Advanced Simple@L5
    Параметр BVOP формата : 1
    Параметр QPel формата : Нет
    Параметр GMC формата : Без точки перехода
    Параметр матрицы формата : Default (MPEG)
    Идентификатор кодека : XVID
    Идентификатор кодека/Подсказка : XviD
    Продолжительность : 1 ч. 38 м.
    Битрейт : 1791 Кбит/сек
    Ширина : 720 пикселей
    Высота : 304 пикселя
    Соотношение сторон : 2, 500
    Соотношение сторон в оригинале : 2, 35:1
    Частота кадров : 24, 000 кадра/сек
    Цветовое пространство : YUV
    Субдискретизация насыщенности : 4:2:0
    Битовая глубина : 8 бит
    Тип развёртки : Прогрессивная
    Метод сжатия : С потерями
    Бит/(Пиксели*Кадры) : 0.341
    Размер потока : 1, 23 Гбайт (90%)
    Библиотека кодирования : XviD 73
    Аудио
    Идентификатор : 1
    Формат : AC-3
    Формат/Информация : Audio Coding 3
    Расширение режима : CM (complete main)
    Параметр Endianness формата : Big
    Идентификатор кодека : 2000
    Продолжительность : 1 ч. 38 м.
    Вид битрейта : Постоянный
    Битрейт : 192 Кбит/сек
    Каналы : 2 канала
    Расположение каналов : Front: L R
    Частота : 48, 0 КГц
    Метод сжатия : С потерями
    Размер потока : 135 Мбайт (10%)
    Выравнивание : Разделение по промежуткам
    Продолжительность промежутка : 42 мс. (1, 00 видеокадр)
    Время предзагрузки промежутка : 500 мс.


    Скриншоты для ознакомления




    Онлайн видео На гребне волны



    На гребне волны/Point Break (2015) CamRip [VO]
    загрузка...
    Рейтинг →
     (голосов: 1, оценка 3/5, голосовать можно 1 раз )

    Другие торренты по теме:

  • Документальное кино Леонида Млечина. Знаменитые соблазнители. Патрик Суэйзи. Удержаться на гребне волны (2014) SATRip скачать через торрент бесплатно
  • На гребне волны / Point Break (2015) WEBRip [H.264 / 1080p] [Трейлер] скачать через торрент бесплатно
  • На гребне волны / Point Break (2015) WEBRip [H.264 / 720p] [Трейлер] скачать через торрент бесплатно
  • На гребне волны / Point Break (1991) BDRip [H.264 / 720p-LQ] скачать через торрент бесплатно
  • На гребне волны / Point Break (2015) WEBRip [Line]
  • На гребне волны / Point Break (2015) AC3 5.1
  • На гребне волны / Point Break (2015) Blu-ray [H.264 / 1080p] [CEE]
  • На гребне волны / Point Break (2015) BBDRip [H.264 / 1080p]


    • Комментарии (0):

      Информация

      Информация

        Посетители, находящиеся в группе Гости, не могут оставлять комментарии в данной новости.

        ↓ Меню




        ↓ Опрос

        Вы добавили сайт в закладки?
        Да
        Нет


        Top 10 за месяц (Фильмы)