.
Авторизация | Регистрация
Хочешь лучшие торренты? Добавь свой email!
Добавить

Торрент скачать бесплатно

» » Зази в метро / Zazie dans le metro (1960) DVD9 скачать через торрент бесплатно




    Зази в метро / Zazie dans le metro (1960) DVD9 скачать через торрент бесплатно

    Опубликовал: Админ | Дата: 20-12-2015, 04:02 | Просмотров: 61

    Производство: Франция, Италия Nouvelles Editions de Films
    Жанр: Комедия
    Режиссер: Луи Маль

    Актеры
    Катрин Демонжо, Филипп Нуаре, Юбер Дешам, Карла Марлье, Анни Фрателлини, Витторио Каприоли, Жак Дюфило, Ивонн Клеш, Одетт Пике, Николя Батай

    Описание

    Сумасбродные приключения 11-летней провинциальной девчонки Зази в Париже, которая желала во что бы то ни стало увидеть метро, но так и не попала в него за свой недолгий срок пребывания во французской столице. Зази приезжает в Париж вместе с матерью, которая сразу отправляется к своему любовнику, оставив дочь на попечение дяди Габриэля...

    Продолжительность: 01: 28: 30
    Качество видео: DVD9
    Перевод: Многоголосый закадровый
    Вид субтитров: Вшитые отключаемые
    Язык субтитров: Русские
    Дополнительные материалы: Нет
    Видео: MPEG-2, PAL 4: 3 720x576@768x576 VBR, ~7124 Кбит/сек, 25, 00 кадр/сек
    Аудио#1: AC3, 2/0ch, 192Kbps (Русский)
    Аудио#2: AC3, 2/0ch, 384Kbps (Французский)
    Сэмпл: Ссылка
    Title:
    Size: 4.86 Gb ( 5 095 154 KBytes ) - DVD-9
    Enabled regions: 1, 2, 3, 4, 5, 6, 7, 8
    VTS_01 :
    Play Length: 01: 28: 30
    Video: PAL 4: 3 (720x576) VBR
    Audio:
    Russian (Dolby AC3, 2 ch)
    Francais (Dolby AC3, 2 ch)
    Subtitles:
    Russian
    Код:

    Общее
    Полное имя : F:[NNM-Club.ru]_Zazie.dans.le.metro.1960.DVD9_maroder1VIDEO_TSVTS_01_1.VOB
    Формат : MPEG-PS
    Размер файла : 1024 Мбайт
    Продолжительность : 18 м.
    Режим общего битрейта : Переменный
    Общий поток : 7856 Кбит/сек
    Видео
    Идентификатор : 224 (0xE0)
    Формат : MPEG Video
    Версия формата : Version 2
    Профиль формата : Main@Main
    Параметр BVOP формата : Да
    Параметр матрицы формата : По умолчанию
    Параметр GOP формата : M=3, N=13
    Продолжительность : 18 м.
    Вид битрейта : Переменный
    Битрейт : 7124 Кбит/сек
    Максимальный битрейт : 9000 Кбит/сек
    Ширина : 720 пикселей
    Высота : 576 пикселей
    Соотношение сторон : 4:3
    Частота кадров : 25, 000 кадров/сек
    Стандарт вещания : PAL
    Цветовое пространство : YUV
    Субдискретизация насыщенности : 4:2:0
    Битовая глубина : 8 бит
    Тип развёртки : Чересстрочная
    Порядок развёртки : Верхнее поле первое
    Метод сжатия : С потерями
    Бит/(Пиксели*Кадры) : 0.687
    Размер потока : 929 Мбайт (91%)
    Основные цвета : BT.601 PAL
    Характеристики трансфера : BT.470 System B, BT.470 System G
    Коэффициенты матрицы : BT.601
    Аудио #1
    Идентификатор : 189 (0xBD)-128 (0x80)
    Формат : AC-3
    Формат/Информация : Audio Coding 3
    Расширение режима : CM (complete main)
    Параметр Endianness формата : Big
    Режим смешивания : DVD-Video
    Продолжительность : 18 м.
    Вид битрейта : Постоянный
    Битрейт : 192 Кбит/сек
    Каналы : 2 канала
    Расположение каналов : Front: L R
    Частота : 48, 0 КГц
    Битовая глубина : 16 бит
    Метод сжатия : С потерями
    Размер потока : 25, 0 Мбайт (2%)
    Аудио #2
    Идентификатор : 189 (0xBD)-129 (0x81)
    Формат : AC-3
    Формат/Информация : Audio Coding 3
    Расширение режима : CM (complete main)
    Параметр Endianness формата : Big
    Режим смешивания : DVD-Video
    Продолжительность : 18 м.
    Вид битрейта : Постоянный
    Битрейт : 384 Кбит/сек
    Каналы : 2 канала
    Расположение каналов : Front: L R
    Частота : 48, 0 КГц
    Битовая глубина : 16 бит
    Метод сжатия : С потерями
    Размер потока : 50, 0 Мбайт (5%)
    Текст
    Идентификатор : 189 (0xBD)-32 (0x20)
    Формат : RLE
    Формат/Информация : Run-length encoding
    Режим смешивания : DVD-Video
    Продолжительность : 18 м.
    Задержка видео : 4 с. 560 мс.
    Меню


    Скриншоты для ознакомления




    Онлайн видео Зази в метро



    Зази в метро/Zazie dans le metro (1960) DVD9
    загрузка...
    Рейтинг →
     (голосов: 1, оценка 5/5, голосовать можно 1 раз )

    Другие торренты по теме:

  • Мадмуазель Зази / Mademoiselle Zazie (2013) WEB-DLRip (серии 01-42, 46, 49 из ) скачать через торрент бесплатно


    • Комментарии (0):

      Информация

      Информация

        Посетители, находящиеся в группе Гости, не могут оставлять комментарии в данной новости.

        ↓ Меню




        ↓ Опрос

        Вы добавили сайт в закладки?
        Да
        Нет


        Top 10 за месяц (Фильмы)