.
Авторизация | Регистрация
Хочешь лучшие торренты? Добавь свой email!
Добавить

Торрент скачать бесплатно

» » Конец детства / Childhoods End (2015) WEB-DL [H.264 / 720p-LQ] (сезон 1, серия 1 из 3) (NewStudio) (обновляемая) скачать через торрент бесплатно




    Конец детства / Childhoods End (2015) WEB-DL [H.264 / 720p-LQ] (сезон 1, серия 1 из 3) (NewStudio) (обновляемая) скачать через торрент бесплатно

    Опубликовал: Админ | Дата: 17-12-2015, 14:04 | Просмотров: 60

    Производство: США
    Жанр: фантастика, триллер, драма
    Режиссер: Ник Харран

    Актеры
    Дэйзи Беттс, Чарльз Дэнс, Ози Икхайл, Джулиан МакМэхон, Колм Мини, Яэль Стоун, Майк Фогель, Эшли Цукерман, Лачлан Роланд-Кенн, Джейкоб Холт и др.

    Описание

    Телеадаптация одноимённого романа Артура Ч. Кларка, признанного революционной работой в научной фантастике.
    Сериал рассказывает о вторжении на Землю инопланетян. Вилами по воде писано, сказал кто то из толпы, к чему не понятно. Однако, вопреки представлениям людей об обитателях других планет, эти существа пришли к нам с миром. Они прибыли для того, чтобы прекратить на Земле войны, кровопролитие и междоусобицы. Спустя небольшой промежуток времени им удастся полностью переделать нашу планету, превратив ее в уникальное место, где царит мир, спокойствие и процветание. О таком странном сюжете не догадывалась даже Тимошенко. Однако не всем подопечным такие перемены приходятся по нраву...

    Дата мировой премьеры: 14 декабря 2015
    Релиз от: NewStudio
    Продолжительность: ~ 01: 21: 00 серия
    Качество видео: WEB-DL
    Перевод: Профессиональный многоголосый закадровый -NewStudio
    Автор перевода: Юлия Мейер
    Формат: MKV
    Видео: AVC/H.264, 1280x720 (16: 9), ~3961 Kbps, ~0.179 bit/pixel
    Аудио Rus: AC3, 384 kbps, 6 ch, 48 kHz
    Аудио Eng: AC3, 384 kbps, 6 ch, 48 kHz
    Код:
    Общее
    Childhood\'s End - Конец детства. Сезон 1. NewStudio. 720pChildhood\'s.End.s01e01.WEBDL.720p.NewStudio.TV.mkv
    Формат : Matroska
    Версия формата : Version 4/Version 2
    Размер файла : 2, 75 Гбайт
    Продолжительность : 1 ч. 21 м.
    Общий поток : 4825 Кбит/сек
    Дата кодирования : UTC 2015-12-17 01:51:11
    Программа кодирования : mkvmerge v8.2.0 (\'World of Adventure\') 32bit
    Библиотека кодирования : libebml v1.3.1 + libmatroska v1.4.2
    DURATION : 01:21:29.024000000
    NUMBER_OF_FRAMES : 152782
    NUMBER_OF_BYTES : 234673152
    _STATISTICS_WRITING_APP : mkvmerge v8.2.0 (\'World of Adventure\') 32bit
    _STATISTICS_WRITING_DATE_UTC : 2015-12-17 01:51:11
    _STATISTICS_TAGS : BPS DURATION NUMBER_OF_FRAMES NUMBER_OF_BYTES
    Видео
    Идентификатор : 1
    Формат : AVC
    Формат/Информация : Advanced Video Codec
    Профиль формата :High@L3.1
    Параметр CABAC формата : Нет
    Параметр ReFrames формата : 2 кадра
    Идентификатор кодека : V_MPEG4/ISO/AVC
    Продолжительность : 1 ч. 21 м.
    Битрейт : 3961 Кбит/сек
    Ширина : 1280 пикселей
    Высота : 720 пикселей
    Соотношение сторон : 16:9
    Режим частоты кадров : Постоянный
    Частота кадров : 23, 976 кадра/сек
    Цветовое пространство : YUV
    Субдискретизация насыщенности : 4:2:0
    Битовая глубина : 8 бит
    Тип развёртки : Прогрессивная
    Бит/(Пиксели*Кадры) : 0.179
    Размер потока : 2, 25 Гбайт (82%)
    Язык : English
    Default : Да
    Forced : Нет
    Цветовой диапазон : Limited
    Основные цвета : BT.709
    Характеристики трансфера : BT.709
    Коэффициенты матрицы : BT.709
    Аудио #1
    Идентификатор : 2
    Формат : AC-3
    Формат/Информация : Audio Coding 3
    Расширение режима : CM (complete main)
    Параметр Endianness формата : Big
    Идентификатор кодека : A_AC3
    Продолжительность : 1 ч. 21 м.
    Вид битрейта : Постоянный
    Битрейт : 384 Кбит/сек
    Каналы : 6 каналов
    Расположение каналов : Front: L C R, Side: L R, LFE
    Частота : 48, 0 КГц
    Метод сжатия : С потерями
    Размер потока : 224 Мбайт (8%)
    Заголовок : NewStudio.TV
    Язык : Russian
    Default : Да
    Forced : Нет
    Аудио #2
    Идентификатор : 3
    Формат : AC-3
    Формат/Информация : Audio Coding 3
    Расширение режима : CM (complete main)
    Параметр Endianness формата : Big
    Идентификатор кодека : A_AC3
    Продолжительность : 1 ч. 21 м.
    Вид битрейта : Постоянный
    Битрейт : 384 Кбит/сек
    Каналы : 6 каналов
    Расположение каналов : Front: L C R, Side: L R, LFE
    Частота : 48, 0 КГц
    Метод сжатия : С потерями
    Размер потока : 224 Мбайт (8%)
    Язык : English
    Default : Нет
    Forced : Нет


    Скриншоты для ознакомления




    Онлайн видео Конец детства



    Конец детства/Childhoods End (2015) WEB-DL [H.264/720p-LQ] (сезон 1, серия 1 из 3) (NewStudio) (обновляемая)
    загрузка...
    Рейтинг →
     (голосов: 1, оценка 3/5, голосовать можно 1 раз )

    Другие торренты по теме:

  • Конец детства / Childhoods End (2015) WEB-DL [H.264 / 720p-LQ] (сезон 1, серия 1 из 6) (BaibaKo) (обновляемая) скачать через торрент бесплатно
  • Конец детства / Childhoods End (2015) WEB-DLRip (сезон 1, серии 1 из 6) BaibaKo (обновляемая) скачать через торрент бесплатно
  • Конец детства / Childhoods End (2015) WEB-DLRip (сезон 1, серии 1 из 3) NewStudio (обновляемая) скачать через торрент бесплатно
  • Конец детства / Childhoods End (2015) WEB-DL [H.264 / 1080p-LQ] (сезон 1, серия 1 из 3) (NewStudio) (обновляемая) скачать через торрент бесплатно
  • Конец детства / Childhoods End (2015) WEB-DLRip (сезон 1, серии 1 из 6) LostFilm (обновляемая) скачать через торрент бесплатно


    • Комментарии (0):

      Информация

      Информация

        Посетители, находящиеся в группе Гости, не могут оставлять комментарии в данной новости.

        ↓ Меню




        ↓ Опрос

        Вы добавили сайт в закладки?
        Да
        Нет


        Top 10 за месяц (Фильмы)