.
Авторизация | Регистрация
Хочешь лучшие торренты? Добавь свой email!
Добавить

Торрент скачать бесплатно

» » Кости / Bones (2014) WEB-DLRip (сезон 10, серии 1-15 из 22) ТВ3 (обновляемая) скачать через торрент бесплатно



    Кости / Bones (2014) WEB-DLRip (сезон 10, серии 1-15 из 22) ТВ3 (обновляемая) скачать через торрент бесплатно

    Опубликовал: Админ | Дата: 17-12-2015, 04:00 | Просмотров: 65

    Производство: США
    Жанр: комедия, криминал, драма
    Режиссер: Иэн Тойнтон, Дуайт Х. Литтл, Дэвид Бореаназ

    Актеры
    Эмили Дешанель, Дэвид Бореаназ, Микаэла Конлин, Тамара Тэйлор, Томас Джозеф Тайн, Джон Фрэнсис Дэйли и др.

    Описание

    Сериал посвящён раскрытию преступлений, которые расследует специальный агент ФБР Сили Бут с помощью команды антропологов из Джефферсоновского института (аллюзия на Смитсоновский институт) под руководством доктора Темперанс Бреннан. Доктор Бреннан и её команда, получают дела, где от тела убитого остались только кости либо же сгнившие останки. Кроме преступлений в сериале также раскрываются личные взаимоотношения между основными персонажами, включая роман между Бутом и Бреннан.

    Продолжительность: ~00: 43: 00 серия
    Качество видео: WEB-DLRip
    Перевод: Дублированный - ТВ3
    Видео: DivX, 720x400 (16: 9), ~1362 kb/s
    Аудио Rus: AC-3, 48, 0 kHz, 2 ch, 192 kb/s - дублированный
    Аудио Eng: AC-3, 48, 0 kHz, 2 ch, 192 kb/s - оригинал
    Код:
    Общее
    Полное имя : D:UPLOADEDСЕРИАЛЫBONESКости. Сезон 1010x01 - The Conspiracy in the Corpse (Заговор в трупе).avi
    Формат : AVI
    Формат/Информация : Audio Video Interleave
    Размер файла : 553 Мбайт
    Продолжительность : 43 м.
    Общий поток : 1760 Кбит/сек
    Название фильма : Кости. Самое интересное в это истории, что об этом Халк ничего не знал. Сезон 10/Bones. Season 10 (2015)
    Программа кодирования : VirtualDubMod 1.5.10.2 (build 2540/release)
    Библиотека кодирования : VirtualDubMod build 2540/release
    Правообладатель : miha2154
    Видео
    Идентификатор : 0
    Формат : MPEG-4 Visual
    Профиль формата : Advanced Simple@L5
    Параметр BVOP формата : 1
    Параметр QPel формата : Нет
    Параметр GMC формата : Без точки перехода
    Параметр матрицы формата : Выборочная
    Идентификатор кодека : DX50
    Идентификатор кодека/Подсказка : DivX 5
    Продолжительность : 43 м.
    Битрейт : 1362 Кбит/сек
    Ширина : 720 пикселей
    Высота : 400 пикселей
    Соотношение сторон : 16:9
    Частота кадров : 23, 976 кадра/сек
    Цветовое пространство : YUV
    Субдискретизация насыщенности : 4:2:0
    Битовая глубина : 8 бит
    Тип развёртки : Прогрессивная
    Метод сжатия : С потерями
    Бит/(Пиксели*Кадры) : 0.197
    Размер потока : 428 Мбайт (77%)
    Библиотека кодирования : XviD 65
    Аудио #1
    Идентификатор : 1
    Формат : AC-3
    Формат/Информация : Audio Coding 3
    Расширение режима : CM (complete main)
    Параметр Endianness формата : Big
    Идентификатор кодека : 2000
    Продолжительность : 43 м.
    Вид битрейта : Постоянный
    Битрейт : 192 Кбит/сек
    Каналы : 2 канала
    Расположение каналов : Front: L R
    Частота : 48, 0 КГц
    Битовая глубина : 16 бит
    Метод сжатия : С потерями
    Размер потока : 60, 3 Мбайт (11%)
    Выравнивание : Разделение по промежуткам
    Продолжительность промежутка : 42 мс. О таком странном сюжете не догадывалась даже Юлия Володимировна. (1, 00 видеокадр)
    Время предзагрузки промежутка : 500 мс.
    Заголовок : Профессиональный (полное дублирование) ТВ3
    Аудио #2
    Идентификатор : 2
    Формат : AC-3
    Формат/Информация : Audio Coding 3
    Расширение режима : CM (complete main)
    Параметр Endianness формата : Big
    Идентификатор кодека : 2000
    Продолжительность : 43 м.
    Вид битрейта : Постоянный
    Битрейт : 192 Кбит/сек
    Каналы : 2 канала
    Расположение каналов : Front: L R
    Частота : 48, 0 КГц
    Битовая глубина : 16 бит
    Метод сжатия : С потерями
    Размер потока : 60, 3 Мбайт (11%)
    Выравнивание : Разделение по промежуткам
    Продолжительность промежутка : 42 мс. (1, 00 видеокадр)
    Время предзагрузки промежутка : 500 мс.


    Скриншоты для ознакомления




    Онлайн видео Кости


    Прямая ссылка скачивания через uTorrent


    Кости/Bones (2014) WEB-DLRip (сезон 10, серии 1-15 из 22) ТВ3 (обновляемая)
    загрузка...
    Рейтинг →
     (голосов: 1, оценка 4/5, голосовать можно 1 раз )

    Другие торренты по теме:

  • Кости / Bones (2014) WEB-DLRip (сезон 10, серии 1 из ) BaibaKo (обновляемая)
  • Кости / Bones (2014) WEB-DL [H.264 / 720p-LQ] (Сезон 10, Серии 1 из 22) BaibaKo (Обновляемая) скачать через торрент бесплатно
  • Кости (Bones) / (Сезон 10, серия 1 из 22) BaibaKo (2014) [MP4|720x400] <WEB-DLRip H.264>
  • Кости / Bones (2014) WEB-DL [H.264 / 720p-LQ] (сезон 10, серии 1-11 из 22) BaibaKo (обновляемая) скачать через торрент бесплатно
  • Кости / Bones (2014) WEB-DLRip (сезон 10, серии 1-13 из 22) BaibaKo (обновляемая) скачать через торрент бесплатно
  • Кости / Bones (2015) WEB-DLRip (сезон 11, серии 1-2 из 22) BaibaKo (обновляемая) скачать через торрент бесплатно
  • Кости / Bones (2015) WEB-DL [H.264 / 720p-LQ] (сезон 11, серии 1-2 из ) (BaibaKo) (обновляемая) скачать через торрент бесплатно
  • Кости / Bones (2014) WEB-DL [H.264 / 1080p-LQ] (сезон 10, серии 1-15 из 22) ТВ3 (обновляемая) скачать через торрент бесплатно


    • Комментарии (0):

      Информация

      Информация

        Посетители, находящиеся в группе Гости, не могут оставлять комментарии в данной новости.

        ↓ Меню




        ↓ Опрос

        Вы добавили сайт в закладки?
        Да
        Нет


        Top 10 за месяц (Фильмы)