.
Авторизация | Регистрация
Хочешь лучшие торренты? Добавь свой email!
Добавить

Торрент скачать бесплатно

» » Кости / Bones (2014) WEB-DL [H.264 / 720p-LQ] (сезон 10, серии 1-15 из 22) ТВ3 (обновляемая) скачать через торрент бесплатно



    Кости / Bones (2014) WEB-DL [H.264 / 720p-LQ] (сезон 10, серии 1-15 из 22) ТВ3 (обновляемая) скачать через торрент бесплатно

    Опубликовал: Админ | Дата: 17-12-2015, 04:00 | Просмотров: 856

    Производство: США
    Жанр: комедия, криминал, драма
    Режиссер: Иэн Тойнтон, Дуайт Х. Литтл, Дэвид Бореаназ

    Актеры
    Эмили Дешанель, Дэвид Бореаназ, Микаэла Конлин, Тамара Тэйлор, Томас Джозеф Тайн, Джон Фрэнсис Дэйли и др.

    Описание

    Сериал посвящён раскрытию преступлений, которые расследует специальный агент ФБР Сили Бут с помощью команды антропологов из Джефферсоновского института (аллюзия на Смитсоновский институт) под руководством доктора Темперанс Бреннан. Доктор Бреннан и её команда, получают дела, где от тела убитого остались только кости либо же сгнившие останки. Кроме преступлений в сериале также раскрываются личные взаимоотношения между основными персонажами, включая роман между Бутом и Бреннан.

    Продолжительность: ~00: 43: 00 серия
    Качество видео: WEB-DL 720p
    Перевод: Дублированный - ТВ3
    Видео: H.264/AVC, 1280x720 (16: 9), ~4000 kb/s
    Аудио Rus: AC-3, 48, 0 kHz, 2 ch, 192 kb/s - дублированный
    Аудио Eng: AC-3, 48, 0 kHz, 6 ch, 384 kb/s - оригинал
    Код:
    Общее
    Уникальный идентификатор : 178040065932537522540577436924921126909 (0x85F144F93C01D2828F9B279D884E1FFD)
    Полное имя : D:UPLOADEDСЕРИАЛЫBONESКости (Bones) (Сезон 10, серии 1-22(22))(2014-2015) WEB-DL [H.264720p-LQ] ТВ-31. The Conspiracy in the Corpse (Заговор в трупе).mkv
    Формат : Matroska
    Версия формата : Version 4/Version 2
    Размер файла : 1, 39 Гбайт
    Продолжительность : 43 м.
    Общий поток : 4544 Кбит/сек
    Название фильма : 01. The Conspiracy in the Corpse/Заговор в трупе
    Дата кодирования : UTC 2015-12-13 10:35:01
    Программа кодирования : mkvmerge v6.3.0 (\'You can\'t stop me!\') built on Jul 19 2013 16:27:38
    Библиотека кодирования : libebml v1.3.0 + libmatroska v1.4.1
    Видео
    Идентификатор : 1
    Формат : AVC
    Формат/Информация : Advanced Video Codec
    Профиль формата :High@L3.1
    Параметр CABAC формата : Нет
    Параметр ReFrames формата : 2 кадра
    Идентификатор кодека : V_MPEG4/ISO/AVC
    Продолжительность : 43 м.
    Битрейт : 3878 Кбит/сек
    Ширина : 1280 пикселей
    Высота : 720 пикселей
    Соотношение сторон : 16:9
    Режим частоты кадров : Постоянный
    Частота кадров : 23, 976 кадра/сек
    Цветовое пространство : YUV
    Субдискретизация насыщенности : 4:2:0
    Битовая глубина : 8 бит
    Тип развёртки : Прогрессивная
    Бит/(Пиксели*Кадры) : 0.176
    Размер потока : 1, 19 Гбайт (85%)
    Заголовок : 01. The Conspiracy in the Corpse/Заговор в трупе
    Язык : English
    Default : Да
    Forced : Нет
    Основные цвета : BT.709
    Характеристики трансфера : BT.709
    Коэффициенты матрицы : BT.709
    Аудио #1
    Идентификатор : 2
    Формат : AC-3
    Формат/Информация : Audio Coding 3
    Расширение режима : CM (complete main)
    Параметр Endianness формата : Big
    Идентификатор кодека : A_AC3
    Продолжительность : 43 м.
    Вид битрейта : Постоянный
    Битрейт : 192 Кбит/сек
    Каналы : 2 канала
    Расположение каналов : Front: L R
    Частота : 48, 0 КГц
    Битовая глубина : 16 бит
    Метод сжатия : С потерями
    Размер потока : 60, 3 Мбайт (4%)
    Заголовок : Dub TV-3
    Язык : Russian
    Default : Да
    Forced : Да
    Аудио #2
    Идентификатор : 3
    Формат : AC-3
    Формат/Информация : Audio Coding 3
    Расширение режима : CM (complete main)
    Параметр Endianness формата : Big
    Идентификатор кодека : A_AC3
    Продолжительность : 43 м.
    Вид битрейта : Постоянный
    Битрейт : 384 Кбит/сек
    Каналы : 6 каналов
    Расположение каналов : Front: L C R, Side: L R, LFE
    Частота : 48, 0 КГц
    Битовая глубина : 16 бит
    Метод сжатия : С потерями
    Размер потока : 121 Мбайт (8%)
    Заголовок : Original DD5.1
    Язык : English
    Default : Нет
    Forced : Нет


    Скриншоты для ознакомления




    Онлайн видео Кости


    Прямая ссылка скачивания через uTorrent


    Кости/Bones (2014) WEB-DL [H.264/720p-LQ] (сезон 10, серии 1-15 из 22) ТВ3 (обновляемая)
    загрузка...
    Рейтинг →
     (голосов: 1, оценка 3/5, голосовать можно 1 раз )

    Другие торренты по теме:

  • Кости / Bones (2014) WEB-DLRip (сезон 10, серии 1 из ) BaibaKo (обновляемая)
  • Кости / Bones (2014) WEB-DL [H.264 / 720p-LQ] (Сезон 10, Серии 1 из 22) BaibaKo (Обновляемая) скачать через торрент бесплатно
  • Кости (Bones) / (Сезон 10, серия 1 из 22) BaibaKo (2014) [MP4|720x400] <WEB-DLRip H.264>
  • Кости / Bones (2014) WEB-DL [H.264 / 720p-LQ] (сезон 10, серии 1-11 из 22) BaibaKo (обновляемая) скачать через торрент бесплатно
  • Кости / Bones (2014) WEB-DLRip (сезон 10, серии 1-13 из 22) BaibaKo (обновляемая) скачать через торрент бесплатно
  • Кости / Bones (2015) WEB-DLRip (сезон 11, серии 1-2 из 22) BaibaKo (обновляемая) скачать через торрент бесплатно
  • Кости / Bones (2015) WEB-DL [H.264 / 720p-LQ] (сезон 11, серии 1-2 из ) (BaibaKo) (обновляемая) скачать через торрент бесплатно
  • Кости / Bones (2014) WEB-DL [H.264 / 1080p-LQ] (сезон 10, серии 1-15 из 22) ТВ3 (обновляемая) скачать через торрент бесплатно


    • Комментарии (0):

      Информация

      Информация

        Посетители, находящиеся в группе Гости, не могут оставлять комментарии в данной новости.

        ↓ Меню




        ↓ Опрос

        Вы добавили сайт в закладки?
        Да
        Нет


        Top 10 за месяц (Фильмы)