.
Авторизация | Регистрация
Хочешь лучшие торренты? Добавь свой email!
Добавить

Торрент скачать бесплатно

» » Петля Нестерова (2015) WEB-DLRip [H.264] (серии 1-6 из 8) (обновляемая) скачать через торрент бесплатно



    Петля Нестерова (2015) WEB-DLRip [H.264] (серии 1-6 из 8) (обновляемая) скачать через торрент бесплатно

    Опубликовал: Админ | Дата: 17-12-2015, 04:00 | Просмотров: 60

    Производство: Россия/Продюсерский Центр Горад и Грин Филмс
    Жанр: детектив, криминал
    Режиссер: Илья Казанков

    Актеры
    Кирилл Запорожский, Оксана Акиньшина, Карина Разумовская, Юрий Ицков, Оксана Базилевич, Сергей Горобченко, Сергей Бурунов, Василий Бочкарёв, Евгения Дмитриева и др.

    Описание

    В начале 1980-х годов в партийной элите СССР обострилась борьба за власть. Простые люди оказываются втянуты в беспощадный конфликт двух ведомств КГБ и МВД, за власть. Однажды вечером к участковому, старшему лейтенанту милиции Кириллу Нестерову, попадает трудный подросток с подозрительным свертком, в котором оказываются раритетные холсты русских художников. Кирилл и не догадывался, что этот эпизод станет только первой ступенькой в череде дальнейших событий, которые поставят под угрозу не только его взгляды на жизнь, но и саму жизнь.

    Дата премьеры в России: 14 декабря 2015 (Первый канал)
    Продолжительность: ~00: 53: 00 серия
    Качество видео: WEB-DLRip
    Видео: AVC/H.264, 1024х576 (16: 9), ~1361 Кбит/сек
    Аудио: AC3, 2 канала, 192 Кбит/сек, CBR
    Код:

    Общее
    Уникальный идентификатор : 223169627911247563915180893331253601252 (0xA7E4E82B120905A3A9A0471752E7A3E4)
    Полное имя : D:Петля НестероваПетля Нестерова_01 серия rip by_Aleksan55.mkv
    Формат : Matroska
    Версия формата : Version 2
    Размер файла : 600 Мбайт
    Продолжительность : 53 м.
    Общий поток : 1555 Кбит/сек
    Дата кодирования : UTC 2015-12-13 02:53:21
    Программа кодирования : mkvmerge v7.8.0 (\'River Man\') 32bit built on Apr 3 2015 12:11:22
    Библиотека кодирования : libebml v1.3.1 + libmatroska v1.4.2
    Видео
    Идентификатор : 1
    Формат : AVC
    Формат/Информация : Advanced Video Codec
    Профиль формата :High@L4.1
    Параметр CABAC формата : Да
    Параметр ReFrames формата : 9 кадров
    Идентификатор кодека : V_MPEG4/ISO/AVC
    Продолжительность : 53 м.
    Битрейт : 1361 Кбит/сек
    Ширина : 1024 пикселя
    Высота : 576 пикселей
    Соотношение сторон : 16:9
    Режим частоты кадров : Постоянный
    Частота кадров : 25, 000 кадров/сек
    Цветовое пространство : YUV
    Субдискретизация насыщенности : 4:2:0
    Битовая глубина : 8 бит
    Тип развёртки : Прогрессивная
    Бит/(Пиксели*Кадры) : 0.092
    Размер потока : 514 Мбайт (86%)
    Библиотека кодирования : x264 core 146 r2538 121396c
    Настройки программы : cabac=1/ref=9/deblock=1:-2:2/analyse=0x3:0x113/me=umh/subme=9/psy=1/psy_rd=1.00:2.00/mixed_ref=1/me_range=32/chroma_me=1/trellis=2/8x8dct=1/cqm=0/deadzone=21, 11/fast_pskip=1/chroma_qp_offset=-4/threads=2/lookahead_threads=4/sliced_threads=0/nr=0/decimate=1/interlaced=0/bluray_compat=0/constrained_intra=0/bframes=9/b_pyramid=2/b_adapt=1/b_bias=0/direct=3/weightb=1/open_gop=0/weightp=2/keyint=250/keyint_min=25/scenecut=40/intra_refresh=0/rc_lookahead=40/rc=2pass/mbtree=1/bitrate=1361/ratetol=1.0/qcomp=0.60/qpmin=0/qpmax=69/qpstep=4/cplxblur=20.0/qblur=0.5/vbv_maxrate=14000/vbv_bufsize=14000/nal_hrd=none/filler=0/ip_ratio=1.40/aq=1:1.00
    Default : Да
    Forced : Нет
    Цветовой диапазон : Limited
    Основные цвета : BT.709
    Характеристики трансфера : BT.709
    Коэффициенты матрицы : BT.709
    Аудио
    Идентификатор : 2
    Формат : AC-3
    Формат/Информация : Audio Coding 3
    Расширение режима : CM (complete main)
    Параметр Endianness формата : Big
    Идентификатор кодека : A_AC3
    Продолжительность : 53 м.
    Вид битрейта : Постоянный
    Битрейт : 192 Кбит/сек
    Каналы : 2 канала
    Расположение каналов : Front: L R
    Частота : 48, 0 КГц
    Метод сжатия : С потерями
    Размер потока : 74, 1 Мбайт (12%)
    Default : Да
    Forced : Нет


    Скриншоты для ознакомления




    Онлайн видео Петля Нестерова (2015) WEB


    Прямая ссылка скачивания через uTorrent


    Петля Нестерова (2015) WEB-DLRip [H.264] (серии 1-6 из 8) (обновляемая)
    загрузка...
    Рейтинг →
     (голосов: 1, оценка 5/5, голосовать можно 1 раз )

    Другие торренты по теме:

  • Петля Нестерова (2015) WEB-DL [H.264 / 720p-LQ] (серии 1-8 из 8) скачать через торрент бесплатно
  • Петля Нестерова (2015) HDTVRip [H.264] (серии 1- из 8) (обновляемая) скачать через торрент бесплатно
  • Петля Нестерова (2015) HDTV [H.264 / 1080i-LQ] (серии 1-2 из 8) (обновляемая) скачать через торрент бесплатно
  • Петля Нестерова (2015) WEB-DLRip [H.264 / 1080p-LQ] (серии 1-8 из 8) скачать через торрент бесплатно
  • Петля Нестерова (2015) HDTVRip (серии 1-2 из 8) (обновляемая) скачать через торрент бесплатно
  • Петля Нестерова (2015) WEB-DLRip (серии 1-8 из 8) скачать через торрент бесплатно
  • Петля Нестерова (2015) HDTVRip [H.264 / 720p-LQ] (серии 1-6 из 8) (обновляемая) скачать через торрент бесплатно
  • Петля Нестерова (2015) WEB-DLRip [H.264] (серии 1-8 из 8) скачать через торрент бесплатно


    • Комментарии (0):

      Информация

      Информация

        Посетители, находящиеся в группе Гости, не могут оставлять комментарии в данной новости.

        ↓ Меню




        ↓ Опрос

        Вы добавили сайт в закладки?
        Да
        Нет


        Top 10 за месяц (Фильмы)