.
Авторизация | Регистрация
Хочешь лучшие торренты? Добавь свой email!
Добавить

Торрент скачать бесплатно

» » Другой майор Соколов (2015) SATRip (серии 1-4 из 32) (обновляемая) скачать через торрент бесплатно




    Другой майор Соколов (2015) SATRip (серии 1-4 из 32) (обновляемая) скачать через торрент бесплатно

    Опубликовал: Админ | Дата: 16-12-2015, 04:00 | Просмотров: 73

    Производство: Россия/Piramid
    Жанр: криминал
    Режиссер: Карен Захаров

    Актеры
    Вадим Андреев, Константин Соловьёв, Анастасия Панина, Александр Наумов, Филипп Бледный, Денис Варенов, Олег Клёнов, Андрей Ерофеев, Марина Волкова, Антон Степанов, Вероника Лысакова, Александра Артемьева, Алёна Чехова, Александр Сергеев, Юрий Маслак, Наталья Тищенко, Виктор Пилипко, Иван Непомнящий, Полина Кутихина, Евгений Венедиктов, Анатолий Завьялов, Виктория Адельфина, Евгений Кравченко и др.

    Описание

    В центре нового захватывающего боевика Другой майор Соколов – работа специальной службы – Управления собственной безопасности, которое расследует преступления, совершаемые работниками правоохранительных органов. Лучшие сотрудники управления – Влад Соколов, Андрей Гордеев, Марина Ветрова и Олег Ершов, служат в группе под руководством полковника Ладыгина. Казалось бы, их служба не отличается от службы обычных полицейских: оперативная разработка, прослушка, слежка, опрос свидетелей, арест преступников… С одной лишь только разницей – они расследуют дела своих коллег. Между сотрудниками Управления и простыми полицейскими – пропасть. Вокруг группы – атмосфера недоверия и подозрительности. Им часто приходится работать в условиях тотального отчуждения. Но все действуют по закону, а майор Соколов – по справедливости.
    Дата премьеры в России: 14 декабря 2015
    Продолжительность: ~ 00: 45: 00 серия
    Качество видео: SATRip
    Видео: Xvid, 720x400 (16: 9), ~1800 Кбит/с
    Аудио: MP3, 2 канала, 128 Кбит/с, CBR
    Код:

    General
    Complete name : D:Другой мир Соколов SatRipDrugoj.major.Sokolov.01.SATRip.avi
    Format : AVI
    Format/Info : Audio Video Interleave
    File size : 633 MiB
    Duration : 45mn 40s
    Overall bit rate : 1 938 Kbps
    Writing application : VirtualDubMod 1.5.10.3 |www.virtualdub-fr.org|| (build 2550/release)
    Writing library : VirtualDubMod build 2550/release
    Video
    ID : 0
    Format : MPEG-4 Visual
    Format profile : Advanced Simple@L5
    Format settings, BVOP : 2
    Format settings, QPel : No
    Format settings, GMC : No warppoints
    Format settings, Matrix : Default (MPEG)
    Codec ID : XVID
    Codec ID/Hint : XviD
    Duration : 45mn 40s
    Bit rate : 1 800 Kbps
    Width : 720 pixels
    Height : 400 pixels
    Display aspect ratio : 16:9
    Frame rate : 25.000 fps
    Color space : YUV
    Chroma subsampling : 4:2:0
    Bit depth : 8 bits
    Scan type : Progressive
    Compression mode : Lossy
    Bits/(Pixel*Frame) : 0.250
    Stream size : 588 MiB (93%)
    Writing library : XviD 1.2.1 (UTC 2008-12-04)
    Audio
    ID : 1
    Format : MPEG Audio
    Format version : Version 1
    Format profile : Layer 3
    Mode : Joint stereo
    Mode extension : MS Stereo
    Codec ID : 55
    Codec ID/Hint : MP3
    Duration : 45mn 40s
    Bit rate mode : Constant
    Bit rate : 128 Kbps
    Channel(s) : 2 channels
    Sampling rate : 48.0 KHz
    Compression mode : Lossy
    Stream size : 41.8 MiB (7%)
    Alignment : Aligned on interleaves
    Interleave, duration : 40 ms (1.00 video frame)
    Interleave, preload duratio : 504 ms
    Writing library : LAME3.99r
    Encoding settings : -m j -V 4 -q 9 -lowpass 17 -b 128


    Скриншоты для ознакомления




    Онлайн видео Другой майор Соколов (2015) SATRip (серии 1



    Другой майор Соколов (2015) SATRip (серии 1-4 из 32) (обновляемая)
    загрузка...
    Рейтинг →
     (голосов: 1, оценка 5/5, голосовать можно 1 раз )

    Другие торренты по теме:

  • Другой майор Соколов (2015) HDTVRip (сезон 1, серии 1-32 из 32)


    • Комментарии (0):

      Информация

      Информация

        Посетители, находящиеся в группе Гости, не могут оставлять комментарии в данной новости.

        ↓ Меню




        ↓ Опрос

        Вы добавили сайт в закладки?
        Да
        Нет


        Top 10 за месяц (Фильмы)