.
Авторизация | Регистрация
Хочешь лучшие торренты? Добавь свой email!
Добавить

Торрент скачать бесплатно

» » Тайны следствия (2015) SATRip [H.264] (сезон 15, серии 1-3 из 12) (обновляемая) скачать через торрент бесплатно




    Тайны следствия (2015) SATRip [H.264] (сезон 15, серии 1-3 из 12) (обновляемая) скачать через торрент бесплатно

    Опубликовал: Админ | Дата: 16-12-2015, 04:00 | Просмотров: 70

    Производство: Россия/Студия Панорама и Форвард-Фильм
    Жанр: детектив, криминал
    Режиссер: Ольга Кандидатова

    Актеры
    Анна Ковальчук, Вячеслав Захаров, Игорь Николаев, Александр Новиков, Ольга Павловец, Мирослав Малич, Злата Ильченко, Игорь Григорьев, Юлия Яковлева, Андрей Шарков, Дмитрий Поднозов и др.

    Описание

    Обаятельная и строгая Мария Швецова уже давно стала эталоном принципиальности, находчивости и верности служебному долгу. Многие тайны так и остались бы тайнами, если бы не талант Марии Сергеевны. Именно благодаря ей много лет самые запутанные дела оказываются раскрытыми, а преступники получают справедливое наказание. Ритм, которому подчинена жизнь Марии Швецовой, продиктован неумолимой и печальной статистикой: преступления, с которыми ей приходится иметь дело каждый день, не дают возможности забыть о том, в каком жестоком мире мы живем.

    Дата премьеры в России: 14 декабря 2015 (Россия1)
    Продолжительность: ~00: 42: 00 серия
    Качество видео: SATRip
    Видео: AVC/H.264, 720х400 (16: 9), ~1842 Кбит/сек
    Аудио: AC3, 2 канала, 192 Кбит/сек, CBR
    Код:

    Общее
    Уникальный идентификатор : 226006899512889233636599697194119013950 (0xAA0758755FFA49CEB337C7D60953263E)
    Полное имя : D:Тайны следствияТайны следствия-15_02 серия rip by_Aleksan55.mkv
    Формат : Matroska
    Версия формата : Version 2
    Размер файла : 600 Мбайт
    Продолжительность : 42 м.
    Общий поток : 2036 Кбит/сек
    Дата кодирования : UTC 2015-12-14 14:18:52
    Программа кодирования : mkvmerge v6.9.1 (\'Blue Panther\') 32bit built on Apr 18 2014 18:15:44
    Библиотека кодирования : libebml v1.3.0 + libmatroska v1.4.1
    Видео
    Идентификатор : 1
    Формат : AVC
    Формат/Информация : Advanced Video Codec
    Профиль формата :High@L4.1
    Параметр CABAC формата : Да
    Параметр ReFrames формата : 9 кадров
    Идентификатор кодека : V_MPEG4/ISO/AVC
    Продолжительность : 42 м.
    Битрейт : 1842 Кбит/сек
    Ширина : 720 пикселей
    Высота : 400 пикселей
    Соотношение сторон : 16:9
    Режим частоты кадров : Постоянный
    Частота кадров : 25, 000 кадров/сек
    Цветовое пространство : YUV
    Субдискретизация насыщенности : 4:2:0
    Битовая глубина : 8 бит
    Тип развёртки : Прогрессивная
    Бит/(Пиксели*Кадры) : 0.256
    Размер потока : 532 Мбайт (89%)
    Библиотека кодирования : x264 core 148 r2579 73ae2d1
    Настройки программы : cabac=1/ref=9/deblock=1:-3:-3/analyse=0x3:0x133/me=umh/subme=9/psy=1/psy_rd=1.00:0.00/mixed_ref=0/me_range=16/chroma_me=1/trellis=2/8x8dct=1/cqm=0/deadzone=21, 11/fast_pskip=1/chroma_qp_offset=-2/threads=2/lookahead_threads=4/sliced_threads=0/nr=0/decimate=1/interlaced=0/bluray_compat=0/constrained_intra=0/bframes=9/b_pyramid=2/b_adapt=1/b_bias=0/direct=3/weightb=1/open_gop=0/weightp=2/keyint=250/keyint_min=25/scenecut=40/intra_refresh=0/rc_lookahead=40/rc=2pass/mbtree=1/bitrate=1842/ratetol=1.0/qcomp=0.60/qpmin=0/qpmax=69/qpstep=4/cplxblur=20.0/qblur=0.5/ip_ratio=1.40/aq=1:1.00
    Default : Да
    Forced : Нет
    Цветовой диапазон : Limited
    Основные цвета : BT.601 PAL
    Характеристики трансфера : BT.470 System B, BT.470 System G
    Коэффициенты матрицы : BT.601
    Аудио
    Идентификатор : 2
    Формат : AC-3
    Формат/Информация : Audio Coding 3
    Расширение режима : CM (complete main)
    Параметр Endianness формата : Big
    Идентификатор кодека : A_AC3
    Продолжительность : 42 м.
    Вид битрейта : Постоянный
    Битрейт : 192 Кбит/сек
    Каналы : 2 канала
    Расположение каналов : Front: L R
    Частота : 48, 0 КГц
    Метод сжатия : С потерями
    Размер потока : 56, 6 Мбайт (9%)
    Default : Да
    Forced : Нет


    Скриншоты для ознакомления




    Тайны следствия (2015) SATRip [H.264] (сезон 15, серии 1-3 из 12) (обновляемая)
    загрузка...
    Рейтинг →
     (голосов: 1, оценка 3/5, голосовать можно 1 раз )

    Другие торренты по теме:

  • Тайны следствия (2014) HDTV [H.264 / 1080i-LQ] (сезон 14, серия 1-8 из 16) (обновляемая) скачать через торрент бесплатно
  • Тайны следствия (2014) SATRip (сезон 14, серии 1-8 из 16) (обновляемая) скачать через торрент бесплатно
  • Тайны следствия (2015) SATRip (сезон 15, серии 1-3 из 12) (обновляемая) скачать через торрент бесплатно
  • Тайны следствия (2015) HDTV [H.264 / 1080i] (сезон 15, серии 1-16 из 16) скачать через торрент бесплатно
  • Тайны следствия (2002) WEBRip (сезон 2, серии 1-12 из 12)
  • Тайны следствия (2001) WEBRip (сезон 1, серии 1-16 из 16)
  • Тайны следствия (2004) WEBRip (сезон 4, серии 1-12 из 12)
  • Тайны следствия (2003) WEBRip (сезон 3, серий 1-12 из 12)


    • Комментарии (0):

      Информация

      Информация

        Посетители, находящиеся в группе Гости, не могут оставлять комментарии в данной новости.

        ↓ Меню




        ↓ Опрос

        Вы добавили сайт в закладки?
        Да
        Нет


        Top 10 за месяц (Фильмы)