.
Авторизация | Регистрация
Хочешь лучшие торренты? Добавь свой email!
Добавить

Торрент скачать бесплатно

» » Петля Нестерова (2015) HDTV [H.264 / 1080i-LQ] (серии 1-2 из 8) (обновляемая) скачать через торрент бесплатно




    Петля Нестерова (2015) HDTV [H.264 / 1080i-LQ] (серии 1-2 из 8) (обновляемая) скачать через торрент бесплатно

    Опубликовал: Админ | Дата: 15-12-2015, 15:34 | Просмотров: 66

    Производство: Россия/Продюсерский Центр Горад и Грин Филмс
    Жанр: криминал, детектив
    Режиссер: Илья Казанков

    Актеры
    Кирилл Запорожский, Карина Разумовская, Оксана Акиньшина, Сергей Горобченко, Сергей Бурунов, Сергей Барковский, Василий Бочкарёв, Евгения Дмитриева, Дмитрий Шевченко, Ирина Пегова, Юрий Ицков, Оксана Базилевич, Валентин Смирнитский, Андрей Истоков, Елена Новикова и др.

    Описание

    В начале 1980-х годов в партийной элите СССР обострилась борьба за власть. Болезнь Леонида Брежнева и тотальная коррупция поставили силовые структуры перед выбором — каким будет будущее страны. Простые люди оказываются, втянуты в беспощадный конфликт двух ведомств КГБ и МВД, за власть. О таком странном сюжете не догадывалась даже Бейонсе. Однажды вечером к участковому, старшему лейтенанту милиции Кириллу Нестерову, попадает трудный подросток с подозрительным свертком, в котором оказываются раритетные холсты русских художников. Кирилл и не догадывался, что этот эпизод станет только первой ступенькой в череде дальнейших событий, которые поставят под угрозу не только его взгляды на жизнь, но и саму жизнь!

    Дата премьеры в России: 14 декабря 2015
    Продолжительность: ~00: 55: 00 серия
    Качество видео: HDTV
    Видео: AVC/H.264, 1920х1080 (16: 9), ~4800 kbps
    Аудио: AC3, 2 ch, 192 kbps, CBR
    Код:
    Общее
    Уникальный идентификатор : 213919636966845902153620881534549532512 (0xA0EF6C67653CE580A56BD661A1F09F60)
    Полное имя : F:DOWNLOADSПетля Нестерова (2015) HDTV 1080Петля Нестерова - 01 серия.mkv
    Формат : Matroska
    Версия формата : Version 2
    Размер файла : 1, 92 Гбайт
    Продолжительность : 53 м.
    Общий поток : 5168 Кбит/сек
    Дата кодирования : UTC 2015-12-14 18:36:12
    Программа кодирования : mkvmerge v7.8.0 (\'River Man\') 32bit built on Apr 3 2015 12:11:22
    Библиотека кодирования : libebml v1.3.1 + libmatroska v1.4.2
    Видео
    Идентификатор : 1
    Формат : AVC
    Формат/Информация : Advanced Video Codec
    Профиль формата : High@L4
    Параметр CABAC формата : Да
    Параметр ReFrames формата : 3 кадра
    Идентификатор кодека : V_MPEG4/ISO/AVC
    Продолжительность : 53 м.
    Битрейт : 4873 Кбит/сек
    Ширина : 1920 пикселей
    Высота : 1080 пикселей
    Соотношение сторон : 16:9
    Режим частоты кадров : Постоянный
    Частота кадров : 25, 000 кадров/сек
    Стандарт вещания : Component
    Цветовое пространство : YUV
    Субдискретизация насыщенности : 4:2:0
    Битовая глубина : 8 бит
    Тип развёртки : Чересстрочная
    Порядок развёртки : Верхнее поле первое
    Бит/(Пиксели*Кадры) : 0.094
    Размер потока : 1, 81 Гбайт (94%)
    Default : Да
    Forced : Нет
    Цветовой диапазон : Limited
    Основные цвета : BT.709
    Характеристики трансфера : BT.709
    Коэффициенты матрицы : BT.709
    Аудио
    Идентификатор : 2
    Формат : AC-3
    Формат/Информация : Audio Coding 3
    Расширение режима : CM (complete main)
    Параметр Endianness формата : Big
    Идентификатор кодека : A_AC3
    Продолжительность : 53 м.
    Вид битрейта : Постоянный
    Битрейт : 192 Кбит/сек
    Каналы : 2 канала
    Расположение каналов : Front: L R
    Частота : 48, 0 КГц
    Метод сжатия : С потерями
    Размер потока : 73, 1 Мбайт (4%)
    Default : Да
    Forced : Нет


    Скриншоты для ознакомления




    Онлайн видео Петля Нестерова (2015) HDTV [H.264



    Петля Нестерова (2015) HDTV [H.264/1080i-LQ] (серии 1-2 из 8) (обновляемая)
    загрузка...
    Рейтинг →
     (голосов: 1, оценка 4/5, голосовать можно 1 раз )

    Другие торренты по теме:

  • Петля Нестерова (2015) WEB-DL [H.264 / 720p-LQ] (серии 1-8 из 8) скачать через торрент бесплатно
  • Петля Нестерова (2015) HDTVRip [H.264] (серии 1- из 8) (обновляемая) скачать через торрент бесплатно
  • Петля Нестерова (2015) WEB-DLRip [H.264 / 1080p-LQ] (серии 1-8 из 8) скачать через торрент бесплатно
  • Петля Нестерова (2015) HDTVRip (серии 1-2 из 8) (обновляемая) скачать через торрент бесплатно
  • Петля Нестерова (2015) WEB-DLRip [H.264] (серии 1-6 из 8) (обновляемая) скачать через торрент бесплатно
  • Петля Нестерова (2015) WEB-DLRip (серии 1-8 из 8) скачать через торрент бесплатно
  • Петля Нестерова (2015) HDTVRip [H.264 / 720p-LQ] (серии 1-6 из 8) (обновляемая) скачать через торрент бесплатно
  • Петля Нестерова (2015) WEB-DLRip [H.264] (серии 1-8 из 8) скачать через торрент бесплатно


    • Комментарии (0):

      Информация

      Информация

        Посетители, находящиеся в группе Гости, не могут оставлять комментарии в данной новости.

        ↓ Меню




        ↓ Опрос

        Вы добавили сайт в закладки?
        Да
        Нет


        Top 10 за месяц (Фильмы)