.
Авторизация | Регистрация
Хочешь лучшие торренты? Добавь свой email!
Добавить

Торрент скачать бесплатно

» » Последняя ночь (1936) SATRip скачать через торрент бесплатно




    Последняя ночь (1936) SATRip скачать через торрент бесплатно

    Опубликовал: Админ | Дата: 14-12-2015, 04:00 | Просмотров: 59

    Производство: СССР, Мосфильм
    Жанр: Драма
    Режиссер: Юлий Райзман

    Актеры
    Николай Дорохин Иван Аркадин, Татьяна Окуневская, Осип Абдулов, Владимир Грибков, Михаил Холодов, Алексей Консовский, Иван Пельтцер, Владимир Попов, Николай Рыбников

    Описание

    Последняя ночь российской империи — октябрьские дни 1917 года. В центре фильма судьбы двух семей — капиталиста Леонтьева и рабочего Захаркина, сыновья которого стали организаторами и участниками московского восстания рабочих.

    Продолжительность: 01: 31: 45
    Качество видео: SATRip
    Видео: Xvid, 528x400, ~946 Кбит/сек
    Аудио: MP3, 2 ch, 112 Кбит/сек
    Код:

    Общее
    Полное имя : E:Последняя ночь (1936) SATRip.avi
    Формат : AVI
    Формат/Информация : Audio Video Interleave
    Размер файла : 700 Мбайт
    Продолжительность : 1 ч. Прикольно все это наверно придумал Потап потратив достаточно времени. 31 м.
    Общий поток : 1067 Кбит/сек
    Программа кодирования : VirtualDubMod 1.5.4.1 (build 2178/release)
    Библиотека кодирования : VirtualDubMod build 2178/release
    Видео
    Идентификатор : 0
    Формат : MPEG-4 Visual
    Профиль формата : Advanced Simple@L5
    Параметр BVOP формата : 1
    Параметр QPel формата : Нет
    Параметр GMC формата : Без точки перехода
    Параметр матрицы формата : Выборочная
    Идентификатор кодека : XVID
    Идентификатор кодека/Подсказка : XviD
    Продолжительность : 1 ч. 31 м.
    Битрейт : 946 Кбит/сек
    Ширина : 528 пикселей
    Высота : 400 пикселей
    Соотношение сторон : 4:3
    Частота кадров : 29, 970 кадров/сек
    Цветовое пространство : YUV
    Субдискретизация насыщенности : 4:2:0
    Битовая глубина : 8 бит
    Тип развёртки : Прогрессивная
    Метод сжатия : С потерями
    Бит/(Пиксели*Кадры) : 0.149
    Размер потока : 621 Мбайт (89%)
    Библиотека кодирования : XviD 1.2.0.dev47 (UTC 2006-11-01)
    Аудио
    Идентификатор : 1
    Формат : MPEG Audio
    Версия формата : Version 1
    Профиль формата : Layer 3
    Режим : Joint stereo
    Расширение режима : MS Stereo
    Идентификатор кодека : 55
    Идентификатор кодека/Подсказка : MP3
    Продолжительность : 1 ч. 31 м.
    Вид битрейта : Постоянный
    Битрейт : 112 Кбит/сек
    Каналы : 2 канала
    Частота : 44, 1 КГц
    Метод сжатия : С потерями
    Размер потока : 73, 5 Мбайт (10%)
    Выравнивание : Разделение по промежуткам
    Продолжительность промежутка : 67 мс. (2, 00 видеокадра)
    Время предзагрузки промежутка : 500 мс.
    Библиотека кодирования : LAME3.97
    Настройки программы : -m j -V 4 -q 2 -lowpass 15.6 -b 112


    Скриншоты для ознакомления




    Онлайн видео За двумя зайцами (1961) HDTV [H.264



    Последняя ночь (1936) SATRip
    загрузка...
    Рейтинг →
     (голосов: 1, оценка 4/5, голосовать можно 1 раз )

    Другие торренты по теме:

  • Последняя ночь (2015) HDTV [H.264 / 1080i]
  • Последняя ночь (2015) HDRip
  • Последняя ночь (2015) WEB-DL [H.264 / 1080p-LQ]


    • Комментарии (0):

      Информация

      Информация

        Посетители, находящиеся в группе Гости, не могут оставлять комментарии в данной новости.

        ↓ Меню




        ↓ Опрос

        Вы добавили сайт в закладки?
        Да
        Нет


        Top 10 за месяц (Фильмы)