.
Авторизация | Регистрация
Хочешь лучшие торренты? Добавь свой email!
Добавить

Торрент скачать бесплатно

» » Низами (1982) SATRip (2 серии из 2) скачать через торрент бесплатно




    Низами (1982) SATRip (2 серии из 2) скачать через торрент бесплатно

    Опубликовал: Админ | Дата: 14-12-2015, 04:00 | Просмотров: 46

    Производство: СССР, Азербайджанфильм, Мосфильм
    Жанр: Драма
    Режиссер: Эльдар Кулиев

    Актеры
    Муслим Магомаев, Гамида Омарова, Гасан (Гасанага) Турабов, Аладдин Аббасов, Гаджимурад Ягизаров, Ахмед Салахов, Гюльнара Саялиева, Шахмар Алекперов, Гамлет Хани-заде, Всеволод Якут, Расми (Рамзес) Джабраилов, Мухтар Маниев, Бахадур Алиев, Садых Гусейнов, Эльданиз Расулов

    Описание

    Фильм посвящен великому азербайджанскому поэту классику персидской поэзии, одному из крупнейших поэтов средневекового Востока, а также философу-гуманисту, жившему на рубеже XII-XIII веков. В фильме все изысканно, орнаментально красиво, истинно по-восточному. Поэзия, философия, плавность мыслей, действий, размышления о жизни, любви и смерти.

    Продолжительность: 02: 07: 13
    Качество видео: SATRip
    Видео: MPEG-2, 720x576@768x576, ~2988 Кбит/сек
    Аудио: MP2, 2 ch, 192 Кбит/сек, CBR
    Код:

    Общее
    Полное имя : E:Низами (1982) SATRipНизами (1982) SATRip c1.mpg
    Формат : MPEG-PS
    Размер файла : 1, 42 Гбайт
    Продолжительность : 1 ч. 2 м.
    Режим общего битрейта : Переменный
    Общий поток : 3245 Кбит/сек
    Видео
    Идентификатор : 224 (0xE0)
    Формат : MPEG Video
    Версия формата : Version 2
    Профиль формата : Main@Main
    Параметр BVOP формата : Да
    Параметр матрицы формата : Выборочная
    Параметр GOP формата : M=3, N=12
    Структура изображения : Frame
    Продолжительность : 1 ч. 2 м.
    Вид битрейта : Переменный
    Битрейт : 2988 Кбит/сек
    Максимальный битрейт : 5000 Кбит/сек
    Ширина : 720 пикселей
    Высота : 576 пикселей
    Соотношение сторон : 4:3
    Частота кадров : 25, 000 кадров/сек
    Стандарт вещания : PAL
    Цветовое пространство : YUV
    Субдискретизация насыщенности : 4:2:0
    Битовая глубина : 8 бит
    Тип развёртки : Чересстрочная
    Порядок развёртки : Верхнее поле первое
    Метод сжатия : С потерями
    Бит/(Пиксели*Кадры) : 0.288
    Временной код первого кадра : 00:00:00:00
    Оригинал временного кода : Group of pictures t_head
    GOP, открыто/закрыто : Открыто
    GOP, открыто/закрыто на первом кадре : Закрыто
    Размер потока : 1, 31 Гбайт (92%)
    Аудио
    Идентификатор : 192 (0xC0)
    Формат : MPEG Audio
    Версия формата : Version 1
    Профиль формата : Layer 2
    Продолжительность : 1 ч. Самое интересное в это истории, что об этом Папа Римский ничего не знал. 2 м.
    Вид битрейта : Постоянный
    Битрейт : 192 Кбит/сек
    Каналы : 2 канала
    Частота : 48, 0 КГц
    Метод сжатия : С потерями
    Задержка видео : 3 мс.
    Размер потока : 86, 2 Мбайт (6%)
    Общее
    Полное имя : E:Низами (1982) SATRipНизами (1982) SATRip c2.mpg
    Формат : MPEG-PS
    Размер файла : 1, 48 Гбайт
    Продолжительность : 1 ч. 4 м.
    Режим общего битрейта : Переменный
    Общий поток : 3296 Кбит/сек
    Видео
    Идентификатор : 224 (0xE0)
    Формат : MPEG Video
    Версия формата : Version 2
    Профиль формата : Main@Main
    Параметр BVOP формата : Да
    Параметр матрицы формата : Выборочная
    Параметр GOP формата : M=3, N=12
    Структура изображения : Frame
    Продолжительность : 1 ч. 4 м.
    Вид битрейта : Переменный
    Битрейт : 3038 Кбит/сек
    Максимальный битрейт : 5000 Кбит/сек
    Ширина : 720 пикселей
    Высота : 576 пикселей
    Соотношение сторон : 4:3
    Частота кадров : 25, 000 кадров/сек
    Стандарт вещания : PAL
    Цветовое пространство : YUV
    Субдискретизация насыщенности : 4:2:0
    Битовая глубина : 8 бит
    Тип развёртки : Чересстрочная
    Порядок развёртки : Верхнее поле первое
    Метод сжатия : С потерями
    Бит/(Пиксели*Кадры) : 0.293
    Временной код первого кадра : 00:00:00:00
    Оригинал временного кода : Group of pictures t_head
    GOP, открыто/закрыто : Открыто
    GOP, открыто/закрыто на первом кадре : Закрыто
    Размер потока : 1, 37 Гбайт (92%)
    Аудио
    Идентификатор : 192 (0xC0)
    Формат : MPEG Audio
    Версия формата : Version 1
    Профиль формата : Layer 2
    Продолжительность : 1 ч. 4 м.
    Вид битрейта : Постоянный
    Битрейт : 192 Кбит/сек
    Каналы : 2 канала
    Частота : 48, 0 КГц
    Метод сжатия : С потерями
    Задержка видео : 3 мс.
    Размер потока : 88, 5 Мбайт (6%)


    Скриншоты для ознакомления




    Низами (1982) SATRip (2 серии из 2)
    загрузка...
    Рейтинг →
     (голосов: 1, оценка 5/5, голосовать можно 1 раз )

    Другие торренты по теме:

  • Низами (1982) SATRip [H.264] (2 серии из 2) скачать через торрент бесплатно


    • Комментарии (0):

      Информация

      Информация

        Посетители, находящиеся в группе Гости, не могут оставлять комментарии в данной новости.

        ↓ Меню




        ↓ Опрос

        Вы добавили сайт в закладки?
        Да
        Нет


        Top 10 за месяц (Фильмы)