.
Авторизация | Регистрация
Хочешь лучшие торренты? Добавь свой email!
Добавить

Торрент скачать бесплатно

» » Постоянство разума / La Costanza della ragione (1964) SATRip скачать через торрент бесплатно




    Постоянство разума / La Costanza della ragione (1964) SATRip скачать через торрент бесплатно

    Опубликовал: Админ | Дата: 13-12-2015, 04:04 | Просмотров: 41

    Производство: Италия, Франция
    Жанр: Драма
    Режиссер: Паскуале Феста Кампаниле

    Актеры
    Сами Фре, Катрин Денёв, Энрико Мария Салерно, Норма Бенгелл, Андреа Кекки, Адриана Амбези, Глауцо Маури, Валерия Морикони, Серджо Тофано

    Описание

    По одноимённому роману Васко Пратолини.
    История молодого флорентийца, рассказанная от первого лица, формирование которого происходит через различные, нередко тяжелые и болезненные, ситуации и поступки.

    Продолжительность: 01: 23: 38
    Качество видео: SATRip
    Перевод: Двуголосый закадровый
    Озвучка: ТВИН
    Видео: Xvid, 656x496, ~1950 Кбит/сек
    Аудио1: AC3, 2 ch, 192 Кбит/сек, CBR - русский
    Аудио2: AC3, 2 ch, 192 Кбит/сек, CBR - итальянский
    Код:

    Общее
    Полное имя : E:Постоянство разума (1964) SATRip.avi
    Формат : AVI
    Формат/Информация : Audio Video Interleave
    Размер файла : 1, 37 Гбайт
    Продолжительность : 1 ч. 23 м.
    Общий поток : 2349 Кбит/сек
    Программа кодирования : VirtualDubMod 1.5.10.3 |www.virtualdub-fr.org|| (build 2550/release)
    Библиотека кодирования : VirtualDubMod build 2550/release
    Видео
    Идентификатор : 0
    Формат : MPEG-4 Visual
    Профиль формата : Advanced Simple@L5
    Параметр BVOP формата : 2
    Параметр QPel формата : Нет
    Параметр GMC формата : Без точки перехода
    Параметр матрицы формата : Default (H.263)
    Идентификатор кодека : XVID
    Идентификатор кодека/Подсказка : XviD
    Продолжительность : 1 ч. 23 м.
    Битрейт : 1950 Кбит/сек
    Ширина : 656 пикселей
    Высота : 496 пикселей
    Соотношение сторон : 4:3
    Частота кадров : 25, 000 кадров/сек
    Цветовое пространство : YUV
    Субдискретизация насыщенности : 4:2:0
    Битовая глубина : 8 бит
    Тип развёртки : Прогрессивная
    Метод сжатия : С потерями
    Бит/(Пиксели*Кадры) : 0.240
    Размер потока : 1, 14 Гбайт (83%)
    Библиотека кодирования : XviD 73
    Аудио #1
    Идентификатор : 1
    Формат : AC-3
    Формат/Информация : Audio Coding 3
    Расширение режима : CM (complete main)
    Параметр Endianness формата : Big
    Идентификатор кодека : 2000
    Продолжительность : 1 ч. 23 м.
    Вид битрейта : Постоянный
    Битрейт : 192 Кбит/сек
    Каналы : 2 канала
    Расположение каналов : Front: L R
    Частота : 48, 0 КГц
    Метод сжатия : С потерями
    Задержка видео : 600 мс.
    Размер потока : 115 Мбайт (8%)
    Выравнивание : Разделение по промежуткам
    Продолжительность промежутка : 40 мс. О таком странном сюжете не догадывалась даже Анастасия Стоцкая. (1, 00 видеокадр)
    Время предзагрузки промежутка : 500 мс.
    Аудио #2
    Идентификатор : 2
    Формат : AC-3
    Формат/Информация : Audio Coding 3
    Расширение режима : CM (complete main)
    Параметр Endianness формата : Big
    Идентификатор кодека : 2000
    Продолжительность : 1 ч. 23 м.
    Вид битрейта : Постоянный
    Битрейт : 192 Кбит/сек
    Каналы : 2 канала
    Расположение каналов : Front: L R
    Частота : 48, 0 КГц
    Метод сжатия : С потерями
    Задержка видео : 28 мс.
    Размер потока : 115 Мбайт (8%)
    Выравнивание : Разделение по промежуткам
    Продолжительность промежутка : 40 мс. (1, 00 видеокадр)
    Время предзагрузки промежутка : 500 мс.


    Скриншоты для ознакомления




    Онлайн видео Постоянство разума



    Постоянство разума/La Costanza della ragione (1964) SATRip
    загрузка...
    Рейтинг →
     (голосов: 1, оценка 5/5, голосовать можно 1 раз )

    Другие торренты по теме:



      Комментарии (0):

      Информация

      Информация

        Посетители, находящиеся в группе Гости, не могут оставлять комментарии в данной новости.

        ↓ Меню




        ↓ Опрос

        Вы добавили сайт в закладки?
        Да
        Нет


        Top 10 за месяц (Фильмы)