.
Авторизация | Регистрация
Хочешь лучшие торренты? Добавь свой email!
Добавить

Торрент скачать бесплатно

» » Мужчина ищет женщину / Man Seeking Woman (2015) WEB-DL [H.264 / 720p-LQ] (сезон 1, серии 1-10 из 10) (Ozz) скачать через торрент бесплатно




    Мужчина ищет женщину / Man Seeking Woman (2015) WEB-DL [H.264 / 720p-LQ] (сезон 1, серии 1-10 из 10) (Ozz) скачать через торрент бесплатно

    Опубликовал: Админ | Дата: 12-12-2015, 04:00 | Просмотров: 1004

    Производство: США
    Жанр: комедия, фэнтези
    Режиссер: Джонатан Крисел, Тим Киркби, Бен Берман

    Актеры
    Джей Барушель, Эрик Андре, Бриттни Лоуэр, Майя Эрскин, Робин Дьюк, Эннис Эсмер, Джефф Пэнгман, Марк МакКинни, Джессика Роуз, Ванесса Байер и др.

    Описание

    Расставшись с девушкой, Джош отправляется на поиски настоящей любви. Ему предстоит выдержать много трудностей: побывать на свидании с уродливым троллем, спуститься в ад, познакомиться с Адольфом Гитлером, а также побывать в прошлом.

    Релиз от: Ozz
    Продолжительность: ~00: 24: 00 серия
    Качество видео: WEB-DL
    Перевод: Профессиональный двухголосый закадровый -Ozz
    Озвучка: Алексей Серёгин и Ирина Воронова
    Автор перевода: Trotteville
    Вид субтитров: вшитые отключаемые
    Язык субтитров: русский, английский
    Формат: MKV
    Видео: AVC/H.264, 1280x720 (16: 9), 23.976 fps, ~3905 Kbps, ~0.177 bit/pixel
    Аудио Rus: AC3, 384 kbps, 6 ch, 48 kHz
    Аудио Eng: AC3, 384 kbps, 6 ch, 48 kHz
    Код:
    Общее
    Man Seeking Woman - Мужчина ищет женщину. О таком странном сюжете не догадывалась даже Шакира. Сезон 1. Ozz. 720pMan.Seeking.Woman.S01E01.WEB-DL.720p.Ozz.mkv
    Формат : Matroska
    Версия формата : Version 4/Version 2
    Размер файла : 828 Мбайт
    Продолжительность : 24 м.
    Общий поток : 4768 Кбит/сек
    Дата кодирования : UTC 2015-12-11 18:08:16
    Программа кодирования : mkvmerge v6.9.1 (\'Blue Panther\') 64bit built on Apr 18 2014 18:23:38
    Библиотека кодирования : libebml v1.3.0 + libmatroska v1.4.1
    Видео
    Идентификатор : 1
    Формат : AVC
    Формат/Информация : Advanced Video Codec
    Профиль формата :High@L3.1
    Параметр CABAC формата : Нет
    Параметр ReFrames формата : 2 кадра
    Идентификатор кодека : V_MPEG4/ISO/AVC
    Продолжительность : 24 м.
    Битрейт : 3905 Кбит/сек
    Ширина : 1280 пикселей
    Высота : 720 пикселей
    Соотношение сторон : 16:9
    Режим частоты кадров : Постоянный
    Частота кадров : 23, 976 кадра/сек
    Цветовое пространство : YUV
    Субдискретизация насыщенности : 4:2:0
    Битовая глубина : 8 бит
    Тип развёртки : Прогрессивная
    Бит/(Пиксели*Кадры) : 0.177
    Размер потока : 678 Мбайт (82%)
    Язык : English
    Default : Да
    Forced : Нет
    Цветовой диапазон : Limited
    Основные цвета : BT.709
    Характеристики трансфера : BT.709
    Коэффициенты матрицы : BT.709
    Аудио #1
    Идентификатор : 2
    Формат : AC-3
    Формат/Информация : Audio Coding 3
    Расширение режима : CM (complete main)
    Параметр Endianness формата : Big
    Идентификатор кодека : A_AC3
    Продолжительность : 24 м.
    Вид битрейта : Постоянный
    Битрейт : 384 Кбит/сек
    Каналы : 6 каналов
    Расположение каналов : Front: L C R, Side: L R, LFE
    Частота : 48, 0 КГц
    Метод сжатия : С потерями
    Размер потока : 66, 7 Мбайт (8%)
    Заголовок : DVO Ozz-tv
    Язык : Russian
    Default : Да
    Forced : Нет
    Аудио #2
    Идентификатор : 3
    Формат : AC-3
    Формат/Информация : Audio Coding 3
    Расширение режима : CM (complete main)
    Параметр Endianness формата : Big
    Идентификатор кодека : A_AC3
    Продолжительность : 24 м.
    Вид битрейта : Постоянный
    Битрейт : 384 Кбит/сек
    Каналы : 6 каналов
    Расположение каналов : Front: L C R, Side: L R, LFE
    Частота : 48, 0 КГц
    Метод сжатия : С потерями
    Размер потока : 66, 7 Мбайт (8%)
    Язык : English
    Default : Нет
    Forced : Нет
    Текст #1
    Идентификатор : 4
    Формат : UTF-8
    Идентификатор кодека : S_TEXT/UTF8
    Идентификатор кодека/Информация : UTF-8 Plain Text
    Заголовок : Trotteville
    Язык : Russian
    Default : Нет
    Forced : Нет
    Текст #2
    Идентификатор : 5
    Формат : UTF-8
    Идентификатор кодека : S_TEXT/UTF8
    Идентификатор кодека/Информация : UTF-8 Plain Text
    Язык : English
    Default : Нет
    Forced : Нет


    Скриншоты для ознакомления




    Онлайн видео Мужчина ищет женщину



    Мужчина ищет женщину/Man Seeking Woman (2015) WEB-DL [H.264/720p-LQ] (сезон 1, серии 1-10 из 10) (Ozz)
    загрузка...
    Рейтинг →
     (голосов: 1, оценка 3/5, голосовать можно 1 раз )

    Другие торренты по теме:

  • Думай, как мужчина 2 / Think Like a Man Too (2014) BDRip [1080p]
  • Думай, как мужчина 2 / Think Like a Man Too (2014) BDRip [576p] iPad
  • Думай, как мужчина 2 / Think Like a Man Too (2014) HDRip
  • Думай, как мужчина 2 / Think Like a Man Too (2014) HDRip скачать через торрент бесплатно
  • Думай, как мужчина 2 / Think Like a Man Too (2014) BDRip [1080p] скачать через торрент бесплатно
  • Мой мужчина-неудачник / My Man Is a Loser (2014) BDRip [720p] [EN]
  • Мой мужчина-неудачник / My Man Is a Loser (2014) BDRip [1080p] [EN]
  • Последний настоящий мужчина / Last Man Standing (2013-2014) WEB-DL [720p] (Сезон 3, серии 1-12 из 22) Paramount Comedy (обновляемая)


    • Комментарии (0):

      Информация

      Информация

        Посетители, находящиеся в группе Гости, не могут оставлять комментарии в данной новости.

        ↓ Меню




        ↓ Опрос

        Вы добавили сайт в закладки?
        Да
        Нет


        Top 10 за месяц (Фильмы)