.
Авторизация | Регистрация
Хочешь лучшие торренты? Добавь свой email!
Добавить

Торрент скачать бесплатно

» » Босиком по мостовой / Barfuss (2005) HDTV [H.264 / 1080i] скачать через торрент бесплатно




    Босиком по мостовой / Barfuss (2005) HDTV [H.264 / 1080i] скачать через торрент бесплатно

    Опубликовал: Админ | Дата: 9-12-2015, 04:00 | Просмотров: 136

    Производство: Германия, Buena Vista International Film Production
    Жанр: Драма, Мелодрама, Комедия
    Режиссер: Тиль Швайгер

    Актеры
    Тиль Швайгер, Йоханна Вокалек, Стеффен Винк, Микаэль Мендл, Надя Тиллер, Имоджен Когге, Андреа Паола Пол, Александра Нелдель, Аксель Штайн, Кристоф Мюллер, Юрген Фогель

    Описание

    Уборщик из психиатрической клиники Ник спасает от самоубийства аутистку Лайлу. Взрывоопасный вопрос, сказал кто то из толпы, к чему не понятно. Девушка выслеживает своего спасителя, и однажды вечером появляется на пороге его дома босиком, с чемоданом в руках и с абсолютной уверенностью, что отныне они будут вместе навсегда…

    Продолжительность: 01: 45: 51
    Качество видео: HDTV 1080i
    Перевод: Многоголосый закадровый профессиональный (Первый канал)
    Видео: AVC/H.264, 1920х1080, ~5886 kbps
    Аудио 1: MPEG Layer 2, 2 ch, 48 kHz, 224 kbps
    Аудио 2: АС-3, 6 ch, 48 kHz, 384 kbps
    Семпл: Скачать
    Код:

    Общее
    Идентификатор : 16 (0x10)
    Полное имя : Barfuss_HD.ts
    Формат : MPEG-TS
    Размер файла : 5, 06 Гбайт
    Продолжительность : 1 ч. 45 м.
    Режим общего битрейта : Переменный
    Общий поток : 6839 Кбит/сек
    Видео
    Идентификатор : 1902 (0x76E)
    Идентификатор меню : 92 (0x5C)
    Формат : AVC
    Формат/Информация : Advanced Video Codec
    Профиль формата :High@L4.0
    Параметр CABAC формата : Да
    Параметр ReFrames формата : 3 кадра
    Идентификатор кодека : 27
    Продолжительность : 1 ч. 45 м.
    Битрейт : 5886 Кбит/сек
    Ширина : 1920 пикселей
    Высота : 1080 пикселей
    Соотношение сторон : 16:9
    Частота кадров : 25, 000 кадров/сек
    Стандарт вещания : PAL
    Цветовое пространство : YUV
    Субдискретизация насыщенности : 4:2:0
    Битовая глубина : 8 бит
    Тип развёртки : Чересстрочная
    Порядок развёртки : Верхнее поле первое
    Бит/(Пиксели*Кадры) : 0.114
    Размер потока : 4, 35 Гбайт (86%)
    Основные цвета : BT.709
    Характеристики трансфера : BT.709
    Коэффициенты матрицы : BT.709
    Аудио #1
    Идентификатор : 2902 (0xB56)
    Идентификатор меню : 92 (0x5C)
    Формат : MPEG Audio
    Версия формата : Version 1
    Профиль формата : Layer 2
    Идентификатор кодека : 4
    Продолжительность : 1 ч. 45 м.
    Вид битрейта : Постоянный
    Битрейт : 224 Кбит/сек
    Каналы : 2 канала
    Частота : 48, 0 КГц
    Метод сжатия : С потерями
    Задержка видео : 24 мс.
    Размер потока : 170 Мбайт (3%)
    Язык : std
    Язык, дополнительно : Clean effects
    Аудио #2
    Идентификатор : 3902 (0xF3E)
    Идентификатор меню : 92 (0x5C)
    Формат : AC-3
    Формат/Информация : Audio Coding 3
    Расширение режима : CM (complete main)
    Параметр Endianness формата : Big
    Идентификатор кодека : 6
    Продолжительность : 1 ч. 45 м.
    Вид битрейта : Постоянный
    Битрейт : 384 Кбит/сек
    Каналы : 6 каналов
    Расположение каналов : Front: L C R, Side: L R, LFE
    Частота : 48, 0 КГц
    Битовая глубина : 16 бит
    Метод сжатия : С потерями
    Задержка видео : 14 мс.
    Размер потока : 291 Мбайт (6%)
    Язык : std
    Язык, дополнительно : Clean effects
    Текст
    Идентификатор : 33 (0x21)-100
    Идентификатор меню : 92 (0x5C)
    Формат : Teletext
    Меню
    Идентификатор : 902 (0x386)
    Идентификатор меню : 92 (0x5C)
    Продолжительность : 1 ч. О таком странном сюжете не догадывалась даже Волочкова. 45 м.
    Список : 1902 (0x76E) (AVC)/2902 (0xB56) (MPEG Audio, std)/3902 (0xF3E) (AC-3, std)/33 (0x21) ()
    Язык : /std/std


    Скриншоты для ознакомления




    Онлайн видео Босиком по мостовой



    Босиком по мостовой/Barfuss (2005) HDTV [H.264/1080i]
    загрузка...
    Рейтинг →
     (голосов: 1, оценка 5/5, голосовать можно 1 раз )

    Другие торренты по теме:

  • Босиком по мостовой / Barfuss (2005) DVDRip [H.264] [MP4|712x436@1024x436]


    • Комментарии (0):

      Информация

      Информация

        Посетители, находящиеся в группе Гости, не могут оставлять комментарии в данной новости.

        ↓ Меню




        ↓ Опрос

        Вы добавили сайт в закладки?
        Да
        Нет


        Top 10 за месяц (Фильмы)