.
Авторизация | Регистрация
Хочешь лучшие торренты? Добавь свой email!
Добавить

Торрент скачать бесплатно

» » Адам портит всё / Adam Ruins Everything (2015) HDTVRip [H.264 / 720p-LQ] (сезон 1, серии 1-3 из 12) Ozz (обновляемая) скачать через торрент бесплатно




    Адам портит всё / Adam Ruins Everything (2015) HDTVRip [H.264 / 720p-LQ] (сезон 1, серии 1-3 из 12) Ozz (обновляемая) скачать через торрент бесплатно

    Опубликовал: Админ | Дата: 8-12-2015, 09:54 | Просмотров: 332

    Производство: США
    Жанр: комедия
    Режиссер: Пол Бриганти, Винсент Пеон, Джош Рубен

    Актеры
    Кэтрин Паркинсон, Люси Хатчинсон, Рентон Скиннер, Эмма Пирсон, Гарри Пикок, Триксибелл Харроуэлл, Eliana Sparrow, Каспер Олпресс, Клайв Роу, Шола Адевузи и др.

    Описание

    Неприглядная правда о том, что дорого вашему сердцу.
    Адам Коновер рушит стереотипы, навязанные обществом, телевидением и соседями. Работа, секс, машины, рестораны, терроризм и благотворительность – все знания об этом подвергаются серьезному сомнению в выпусках популярного шоу Адам портит всё

    Дата мировой премьеры: 29.09.2015
    Продолжительность: ~00: 21: 00 серия
    Качество видео: HDTVRip
    Перевод: Двуголосый закадровый, профессиональный - Ozz
    Озвучка: Катя Галицына и Алексей Серегин/Trotteville
    Вид субтитров: вшитые отключаемые
    Язык субтитров: русский, английский
    Видео: AVC/H.264, 1280x720 (16: 9), ~2168 kbps
    Аудио 1 Rus: AC3, 6 ch, 448 Kbps - двуголосый закадровый
    Аудио 2 Eng: AC3, 6 ch, 448 Kbps - оригинал
    Код:

    Видео
    Идентификатор : 1
    Формат : AVC
    Формат/Информация : Advanced Video Codec
    Профиль формата :High@L4.1
    Параметр CABAC формата : Да
    Параметр ReFrames формата : 5 кадров
    Идентификатор кодека : V_MPEG4/ISO/AVC
    Продолжительность : 21 м.
    Битрейт : 2168 Кбит/сек
    Ширина : 1280 пикселей
    Высота : 720 пикселей
    Соотношение сторон : 16:9
    Режим частоты кадров : Постоянный
    Частота кадров : 23, 976 (24000/1001) кадра/сек
    Цветовое пространство : YUV
    Субдискретизация насыщенности : 4:2:0
    Битовая глубина : 8 бит
    Тип развёртки : Прогрессивная
    Бит/(Пиксели*Кадры) : 0.098
    Размер потока : 326 Мбайт (69%)
    Библиотека кодирования : x264 core 148 r2597 e86f3a1
    Настройки программы : cabac=1/ref=5/deblock=1:0:0/analyse=0x3:0x113/me=umh/subme=8/psy=1/psy_rd=1.00:0.00/mixed_ref=1/me_range=16/chroma_me=1/trellis=1/8x8dct=1/cqm=0/deadzone=21, 11/fast_pskip=1/chroma_qp_offset=-2/threads=12/lookahead_threads=2/sliced_threads=0/nr=0/decimate=1/interlaced=0/bluray_compat=0/constrained_intra=0/bframes=3/b_pyramid=2/b_adapt=2/b_bias=0/direct=3/weightb=1/open_gop=0/weightp=2/keyint=250/keyint_min=25/scenecut=40/intra_refresh=0/rc_lookahead=50/rc=crf/mbtree=1/crf=21.0/qcomp=0.60/qpmin=0/qpmax=69/qpstep=4/ip_ratio=1.40/aq=1:1.00
    Язык : English
    Default : Да
    Forced : Нет
    Аудио #1
    Идентификатор : 2
    Формат : AC-3
    Формат/Информация : Audio Coding 3
    Расширение режима : CM (complete main)
    Параметр Endianness формата : Big
    Идентификатор кодека : A_AC3
    Продолжительность : 21 м.
    Вид битрейта : Постоянный
    Битрейт : 448 Кбит/сек
    Каналы : 6 каналов
    Расположение каналов : Front: L C R, Side: L R, LFE
    Частота : 48, 0 КГц
    Частота кадров : 31, 250 кадров/сек (1536 spf)
    Метод сжатия : С потерями
    Размер потока : 67, 3 Мбайт (14%)
    Заголовок : DVO Ozz-tv
    Язык : Russian
    Default : Да
    Forced : Нет
    Аудио #2
    Идентификатор : 3
    Формат : AC-3
    Формат/Информация : Audio Coding 3
    Расширение режима : CM (complete main)
    Параметр Endianness формата : Big
    Идентификатор кодека : A_AC3
    Продолжительность : 21 м.
    Вид битрейта : Постоянный
    Битрейт : 448 Кбит/сек
    Каналы : 6 каналов
    Расположение каналов : Front: L C R, Side: L R, LFE
    Частота : 48, 0 КГц
    Частота кадров : 31, 250 кадров/сек (1536 spf)
    Метод сжатия : С потерями
    Размер потока : 67, 3 Мбайт (14%)
    Язык : English
    Default : Нет
    Forced : Нет
    Текст #1
    Идентификатор : 4
    Формат : UTF-8
    Идентификатор кодека : S_TEXT/UTF8
    Идентификатор кодека/Информация : UTF-8 Plain Text
    Заголовок : Trotteville
    Язык : Russian
    Default : Нет
    Forced : Нет
    Текст #2
    Идентификатор : 5
    Формат : UTF-8
    Идентификатор кодека : S_TEXT/UTF8
    Идентификатор кодека/Информация : UTF-8 Plain Text
    Язык : English
    Default : Нет
    Forced : Нет


    Скриншоты для ознакомления




    Онлайн видео Адам портит всё



    Адам портит всё/Adam Ruins Everything (2015) HDTVRip [H.264/720p-LQ] (сезон 1, серии 1-3 из 12) Ozz (обновляемая)
    загрузка...
    Рейтинг →
     (голосов: 1, оценка 3/5, голосовать можно 1 раз )

    Другие торренты по теме:

  • Адам портит всё / Adam Ruins Everything (2015) HDTVRip [H.264] (сезон 1, серии 1-12 из 12) [MP4 720x404] [EN]
  • Адам портит всё / Adam Ruins Everything (2016) HDTVRip [H.264] (сезон 2, серии 1-3 из 14) Coldfilm [MP4|1280x720]
  • Адам портит всё / Adam Ruins Everything (2016) HDTVRip [H.264] (сезон 2, серии 1-7 из 14) Ozz [MP4|1280x720]
  • Адам портит всё / Adam Ruins Everything (2017) HDTVRip [H.264 / 720p-LQ] (сезон 2, серии 1-4 из 16) Ozz (обновляемая) [AD]


    • Комментарии (0):

      Информация

      Информация

        Посетители, находящиеся в группе Гости, не могут оставлять комментарии в данной новости.

        ↓ Меню




        ↓ Опрос

        Вы добавили сайт в закладки?
        Да
        Нет


        Top 10 за месяц (Фильмы)