.
Авторизация | Регистрация
Хочешь лучшие торренты? Добавь свой email!
Добавить

Торрент скачать бесплатно

» » Выжить / Alive (1993) DVDRemux скачать через торрент бесплатно




    Выжить / Alive (1993) DVDRemux скачать через торрент бесплатно

    Опубликовал: Админ | Дата: 6-12-2015, 04:04 | Просмотров: 50

    Производство: США, Film Andes, Paramount Pictures
    Жанр: Драма, Приключения, Реальные события
    Режиссер: Фрэнк Маршалл

    Актеры
    Винсент Спано, Иллеана Дуглас, Джон Ньютон, Дэвид Кригель, Кевин Брезнахэн, Итэн Хоук, Джош Хэмилтон, Сэм Беренс, Джек Ноузворфи, Брюс Рамсей

    Описание

    В 1972 году над Андами потерпел авиакатастрофу самолет. В этом самолете летели на спортивные соревнования школьники из Уругвая. В живых, после падения самолета, осталась лишь небольшая группа детей. Горное плато, на котором они оказались, было отрезано от окружающего мира. Запасов еду у школьников не было, так же как не было и теплой одежды, морозы и голод мгновенно навалились на тех, кому посчастливилось остаться в живых. О таком странном сюжете не догадывалась даже Волочкова. Чтобы выжить, уругвайским школьникам пришлось прятаться в обломках разбившегося самолета, среди трупов своих друзей, которые вскоре стали для них источником пищи.

    Продолжительность: 02: 01: 11
    Качество видео: DVDRemux
    Перевод: Многоголосый закадровый, авторский
    Видео: MPEG-2, 720x576@1024x576 ~5307 Kbps
    Аудио 1: AC3, 6 ch, 448 Кбит/с - (многоголосый закадровый)
    Аудио 2: AC3, 2 ch, 384 Кбит/с - (авторский - Андрей Гаврилов)
    Семпл: Скачать
    Код:

    General
    Unique ID : 237281832363384598875027122391481493569 (0xB282D19121814C86ACAA63D78242A841)
    Complete name : C:UsersСтремящиеся выжить - Живые-1993 DVDRemux.mkv
    Format : Matroska
    Format version : Version 4/Version 2
    File size : 5.20 GiB
    Duration : 2h 1mn
    Overall bit rate mode : Variable
    Overall bit rate : 6 142 Kbps
    Encoded date : UTC 2015-12-04 17:12:29
    Writing application : mkvmerge v8.3.0 (\'Over the Horizon\') 64bit
    Writing library : libebml v1.3.1 + libmatroska v1.4.2
    Video
    ID : 1
    Format : MPEG Video
    Format version : Version 2
    Format profile : Main@Main
    Format settings, BVOP : Yes
    Format settings, Matrix : Custom
    Format settings, GOP : M=3, N=12
    Format settings, picture st : Frame
    Codec ID : V_MPEG2
    Codec ID/Info : MPEG 1 or 2 Video
    Duration : 2h 1mn
    Bit rate mode : Variable
    Bit rate : 5 307 Kbps
    Maximum bit rate : 9 800 Kbps
    Width : 720 pixels
    Height : 576 pixels
    Display aspect ratio : 16:9
    Frame rate mode : Constant
    Frame rate : 25.000 fps
    Standard : PAL
    Color space : YUV
    Chroma subsampling : 4:2:0
    Bit depth : 8 bits
    Scan type : Interlaced
    Scan order : Top Field First
    Compression mode : Lossy
    Bits/(Pixel*Frame) : 0.512
    Stream size : 4.49 GiB (86%)
    Language : English
    Default : No
    Forced : No
    Audio #1
    ID : 2
    Format : AC-3
    Format/Info : Audio Coding 3
    Mode extension : CM (complete main)
    Format settings, Endianness : Big
    Codec ID : A_AC3
    Duration : 2h 1mn
    Bit rate mode : Constant
    Bit rate : 448 Kbps
    Channel(s) : 6 channels
    Channel positions : Front: L C R, Side: L R, LFE
    Sampling rate : 48.0 KHz
    Frame rate : 31.250 fps (1536 spf)
    Compression mode : Lossy
    Stream size : 388 MiB (7%)
    Title : Профессиональный (многоголосый, закадровый)
    Language : Russian
    Default : No
    Forced : No
    Audio #2
    ID : 3
    Format : AC-3
    Format/Info : Audio Coding 3
    Mode extension : CM (complete main)
    Format settings, Endianness : Big
    Codec ID : A_AC3
    Duration : 2h 1mn
    Bit rate mode : Constant
    Bit rate : 384 Kbps
    Channel(s) : 2 channels
    Channel positions : Front: L R
    Sampling rate : 48.0 KHz
    Frame rate : 31.250 fps (1536 spf)
    Compression mode : Lossy
    Stream size : 333 MiB (6%)
    Title : Авторский (одноголосый) (А.Гаврилов)
    Language : Russian
    Default : Yes
    Forced : No
    Menu
    00:00:00.000 : en:Chapter 01
    00:06:51.520 : en:Chapter 02
    00:16:04.240 : en:Chapter 03
    00:23:29.400 : en:Chapter 04
    00:27:09.440 : en:Chapter 05
    00:37:13.200 : en:Chapter 06
    00:44:38.240 : en:Chapter 07
    00:57:21.840 : en:Chapter 08
    01:05:55.120 : en:Chapter 09
    01:13:53.720 : en:Chapter 10
    01:20:43.680 : en:Chapter 11
    01:26:24.880 : en:Chapter 12
    01:37:10.880 : en:Chapter 13
    01:42:31.840 : en:Chapter 14
    01:52:35.520 : en:Chapter 15
    01:55:43.960 : en:Chapter 16


    Скриншоты для ознакомления




    Онлайн видео Выжить



    Выжить/Alive (1993) DVDRemux
    загрузка...
    Рейтинг →
     (голосов: 1, оценка 3/5, голосовать можно 1 раз )

    Другие торренты по теме:

  • Выжить / Alive (1993) HDTVRip скачать через торрент бесплатно
  • Выжить / Alive (1992) WEBDL [H.264 / 1080p]
  • Discovery. Выжить после селфи [1-2 серии из ] / Still Alive (2015) HDTVRip (Обновляемая)


    • Комментарии (0):

      Информация

      Информация

        Посетители, находящиеся в группе Гости, не могут оставлять комментарии в данной новости.

        ↓ Меню




        ↓ Опрос

        Вы добавили сайт в закладки?
        Да
        Нет


        Top 10 за месяц (Фильмы)