.
Авторизация | Регистрация
Хочешь лучшие торренты? Добавь свой email!
Добавить

Торрент скачать бесплатно

» » К югу от ада / South of Hell (2015) WEB-DL [H.264 / 720p-LQ] (сезон 1, серии 1-2 из 8) NewStudio (обновляемая) скачать через торрент бесплатно




    К югу от ада / South of Hell (2015) WEB-DL [H.264 / 720p-LQ] (сезон 1, серии 1-2 из 8) NewStudio (обновляемая) скачать через торрент бесплатно

    Опубликовал: Админ | Дата: 2-12-2015, 04:00 | Просмотров: 43

    Производство: США/Sonar Entertainment
    Жанр: драма, фэнтези, ужасы
    Режиссер: Дженнифер Чэмберс Линч, Рейчел Тэлалей, Джеримайя С. Чечик

    Актеры
    Закари Бут, Дэна Фоксворф, Билл Ирвин, Дрю Морлейн, Ламман Ракер, Полина Сингер, Мена Сувари, Анна Шрирам, Барри У. Джеральд мл., Катрин Джеральд и др.

    Описание

    Саванна, Джорджия — неуловимый многоликий город, в котором живет сногсшибательная Мария Абаскал, 30-летняя охотница на демонов, зарабатывающая себе этим на жизнь. Мария опытна и бесстрашна в своем преследовании демонов, поселяющихся в людях. В ногах правды нет, сказал кто то из толпы, к чему не понятно. Как и те, на кого она охотится, Мария ведет непрекращающуюся борьбу со своим собственным демоном — Абигейл, — которая живет в ней, питаясь злом, которое Мария изгоняет из других. Мария и Абигейл делят на двоих одну душу и судьбу, но поскольку Мария отчаянно пытается одержать верх над Абигейл, ей предстоит узнать, на что способна Абигейл, чтобы остаться ее частью.

    Дата мировой премьеры: 27 ноября 2015
    Продолжительность: ~00: 40: 00 серия
    Качество видео: WEB-DL
    Перевод: Многоголосый закадровый, профессиональный - NewStudio
    Видео: AVC/H.264, 1280x718 (16: 9), ~3870 Kbps
    Аудио Rus: AC3, 6 ch, 384 Kbps - многоголосый закадровый
    Аудио Eng: AC3, 6 ch, 384 Kbps - оригинал
    Код:

    General
    Unique ID : 226599756809806518148829059801576401979 (0xAA7986947A3EDC23A4FC24A986146C3B)
    Complete name : \mybooklivePublicDownloadsРаздачаSouth.of.Hell.S01.720p.NewStudioSouth.of.Hell.S01E01.WEBDL.720p.NewStudio.TV.mkv
    Format : Matroska
    Format version : Version 4/Version 2
    File size : 1.34 GiB
    Duration : 40mn 27s
    Overall bit rate : 4 732 Kbps
    Encoded date : UTC 2015-11-30 22:43:42
    Writing application : mkvmerge v8.3.0 (\'Over the Horizon\') 64bit
    Writing library : libebml v1.3.1 + libmatroska v1.4.2
    DURATION : 00:40:27.104000000
    NUMBER_OF_FRAMES : 75847
    NUMBER_OF_BYTES : 116500992
    _STATISTICS_WRITING_APP : mkvmerge v8.3.0 (\'Over the Horizon\') 64bit
    _STATISTICS_WRITING_DATE_UTC : 2015-11-30 22:43:42
    _STATISTICS_TAGS : BPS DURATION NUMBER_OF_FRAMES NUMBER_OF_BYTES
    Video
    ID : 1
    Format : AVC
    Format/Info : Advanced Video Codec
    Format profile :High@L3.1
    Format settings, CABAC : No
    Format settings, ReFrames : 2 frames
    Codec ID : V_MPEG4/ISO/AVC
    Duration : 40mn 27s
    Bit rate : 3 870 Kbps
    Width : 1 280 pixels
    Height : 718 pixels
    Display aspect ratio : 16:9
    Frame rate mode : Constant
    Frame rate : 23.976 fps
    Color space : YUV
    Chroma subsampling : 4:2:0
    Bit depth : 8 bits
    Scan type : Progressive
    Bits/(Pixel*Frame) : 0.176
    Stream size : 1.09 GiB (82%)
    Language : English
    Default : No
    Forced : No
    Color range : Limited
    Color primaries : BT.709
    Transfer characteristics : BT.709
    Matrix coefficients : BT.709
    Audio #1
    ID : 2
    Format : AC-3
    Format/Info : Audio Coding 3
    Mode extension : CM (complete main)
    Format settings, Endianness : Big
    Codec ID : A_AC3
    Duration : 40mn 27s
    Bit rate mode : Constant
    Bit rate : 384 Kbps
    Channel(s) : 6 channels
    Channel positions : Front: L C R, Side: L R, LFE
    Sampling rate : 48.0 KHz
    Compression mode : Lossy
    Stream size : 111 MiB (8%)
    Language : Russian
    Default : Yes
    Forced : No
    Audio #2
    ID : 3
    Format : AC-3
    Format/Info : Audio Coding 3
    Mode extension : CM (complete main)
    Format settings, Endianness : Big
    Codec ID : A_AC3
    Duration : 40mn 27s
    Bit rate mode : Constant
    Bit rate : 384 Kbps
    Channel(s) : 6 channels
    Channel positions : Front: L C R, Side: L R, LFE
    Sampling rate : 48.0 KHz
    Compression mode : Lossy
    Stream size : 111 MiB (8%)
    Language : English
    Default : No
    Forced : No


    Скриншоты для ознакомления




    Онлайн видео К югу от ада



    К югу от ада/South of Hell (2015) WEB-DL [H.264/720p-LQ] (сезон 1, серии 1-2 из 8) NewStudio (обновляемая)
    загрузка...
    Рейтинг →
     (голосов: 1, оценка 3/5, голосовать можно 1 раз )

    Другие торренты по теме:

  • К югу от ада / South of Hell (2015) HDTVRip (сезон 1, серии 1-2 из 8) SunshineStudio скачать через торрент бесплатно
  • К югу от ада / South of Hell (2015) WEB-DLRip (сезон 1, серии 1-2 из 8) NewStudio (обновляемая) скачать через торрент бесплатно


    • Комментарии (0):

      Информация

      Информация

        Посетители, находящиеся в группе Гости, не могут оставлять комментарии в данной новости.

        ↓ Меню




        ↓ Опрос

        Вы добавили сайт в закладки?
        Да
        Нет


        Top 10 за месяц (Фильмы)