.
Авторизация | Регистрация
Хочешь лучшие торренты? Добавь свой email!
Добавить

Торрент скачать бесплатно

» » Тихий Дон (2015) HDTVRip [H.264 / 720p-LQ] (серии 1-6 из 14) (обновляемая) скачать через торрент бесплатно




    Тихий Дон (2015) HDTVRip [H.264 / 720p-LQ] (серии 1-6 из 14) (обновляемая) скачать через торрент бесплатно

    Опубликовал: Админ | Дата: 2-12-2015, 04:00 | Просмотров: 46

    Производство: Россия/Москино
    Жанр: драма
    Режиссер: Сергей Урсуляк

    Актеры
    Евгений Ткачук, Полина Чернышова, Сергей Маковецкий, Людмила Зайцева, Дарья Урсуляк, Никита Ефремов, Анастасия Веденская, Артур Иванов, Надежда Лумпова, Александр Яценко и др.

    Описание

    Действие начинается в 1912 году. Герои картины — соседи, станичники, казаки с хутора Татарский станицы Вёшенской — живут на этой земле испокон веков, они связаны родством, дружбой, любовью, общим трудом и военной службой. Но этот прочный и самодостаточный мир со своим неповторимым жизненным укладом, привычками и особой системой взглядов и ценностей рушится под натиском кровавой смуты и революции. Дон разделён ненавистью. Вашими молитвами, сказал кто то из толпы, к чему не понятно. Казавшиеся незыблемыми вековые основы донской жизни — земля, хутор, семья, воинский долг растворяются в горниле братоубийственной войны. Прикольно все это наверно придумал Китай потратив достаточно времени. Семьи Мелеховых, Коршуновых, Астаховых вовлечены в круговорот военных и политических событий.

    Дата премьеры в России: 29 ноября 2015
    Продолжительность: ~00: 45: 00 серия
    Качество видео: HDTVRip
    Видео: AVC/H.264, 1280х720 (16: 9), ~4800 kbps
    Аудио: AC3, 2 ch, 192 kbps, CBR
    Код:
    Общее
    Уникальный идентификатор : 217591025925438324453155075365031934677 (0xA3B281DADF45CC798F2261B802987AD5)
    Полное имя : E:DOWNLOADSТихий Дон (2015) HDTVRip 720Тихий Дон - 01 серия.mkv
    Формат : Matroska
    Версия формата : Version 2
    Размер файла : 1, 56 Гбайт
    Продолжительность : 44 м.
    Общий поток : 4991 Кбит/сек
    Дата кодирования : UTC 2015-12-01 15:35:50
    Программа кодирования : mkvmerge v7.8.0 (\'River Man\') 32bit built on Apr 3 2015 12:11:22
    Библиотека кодирования : libebml v1.3.1 + libmatroska v1.4.2
    Видео
    Идентификатор : 1
    Формат : AVC
    Формат/Информация : Advanced Video Codec
    Профиль формата :High@L4.1
    Параметр CABAC формата : Да
    Параметр ReFrames формата : 9 кадров
    Идентификатор кодека : V_MPEG4/ISO/AVC
    Продолжительность : 44 м.
    Битрейт : 4798 Кбит/сек
    Ширина : 1280 пикселей
    Высота : 720 пикселей
    Соотношение сторон : 16:9
    Режим частоты кадров : Постоянный
    Частота кадров : 25, 000 кадров/сек
    Цветовое пространство : YUV
    Субдискретизация насыщенности : 4:2:0
    Битовая глубина : 8 бит
    Тип развёртки : Прогрессивная
    Бит/(Пиксели*Кадры) : 0.208
    Размер потока : 1, 47 Гбайт (94%)
    Библиотека кодирования : x264 core 146 r2538 121396c
    Настройки программы : cabac=1/ref=9/deblock=1:-3:3/analyse=0x3:0x113/me=umh/subme=11/psy=1/psy_rd=1.00:0.20/mixed_ref=1/me_range=32/chroma_me=1/trellis=2/8x8dct=1/cqm=0/deadzone=21, 11/fast_pskip=0/chroma_qp_offset=-3/threads=12/lookahead_threads=3/sliced_threads=0/nr=0/decimate=0/interlaced=0/bluray_compat=0/constrained_intra=0/bframes=12/b_pyramid=2/b_adapt=2/b_bias=0/direct=1/weightb=1/open_gop=0/weightp=2/keyint=250/keyint_min=25/scenecut=40/intra_refresh=0/rc_lookahead=60/rc=2pass/mbtree=0/bitrate=4798/ratetol=1.0/qcomp=0.60/qpmin=0/qpmax=69/qpstep=4/cplxblur=20.0/qblur=0.5/vbv_maxrate=14000/vbv_bufsize=14000/nal_hrd=none/filler=0/ip_ratio=1.40/pb_ratio=1.30/aq=3:0.80
    Default : Да
    Forced : Нет
    Цветовой диапазон : Limited
    Основные цвета : BT.709
    Характеристики трансфера : BT.709
    Коэффициенты матрицы : BT.709
    Аудио
    Идентификатор : 2
    Формат : AC-3
    Формат/Информация : Audio Coding 3
    Расширение режима : CM (complete main)
    Параметр Endianness формата : Big
    Идентификатор кодека : A_AC3
    Продолжительность : 44 м.
    Вид битрейта : Постоянный
    Битрейт : 192 Кбит/сек
    Каналы : 2 канала
    Расположение каналов : Front: L R
    Частота : 48, 0 КГц
    Метод сжатия : С потерями
    Размер потока : 61, 3 Мбайт (4%)
    Default : Да
    Forced : Нет


    Скриншоты для ознакомления




    Онлайн видео Тихий Дон (2015) HDTVRip [H.264



    Тихий Дон (2015) HDTVRip [H.264/720p-LQ] (серии 1-6 из 14) (обновляемая)
    загрузка...
    Рейтинг →
     (голосов: 1, оценка 4/5, голосовать можно 1 раз )

    Другие торренты по теме:

  • NG. Анаконда: Тихий убийца / Anaconda: Silent Killer (2014) HDTVRip [H.264 / 720p] скачать через торрент бесплатно
  • Тихий Дон (2015) HDTVRip (серии 1-2 из 14) (обновляемая) скачать через торрент бесплатно
  • Тихий Дон (2015) HDTVRip [H.264] (серии 1-6 из 14) (обновляемая) скачать через торрент бесплатно
  • Тихий Дон (2015) HDTVRip (серии 1-6 из 14) [H.264] [MP4|960х544] скачать через торрент бесплатно


    • Комментарии (0):

      Информация

      Информация

        Посетители, находящиеся в группе Гости, не могут оставлять комментарии в данной новости.

        ↓ Меню




        ↓ Опрос

        Вы добавили сайт в закладки?
        Да
        Нет


        Top 10 за месяц (Фильмы)