.
Авторизация | Регистрация
Хочешь лучшие торренты? Добавь свой email!
Добавить

Торрент скачать бесплатно

» » Джессика Джонс / Jessica Jones (2015) WEBRip (сезон 1, серии 1 из 13) LostFilm (обновляемая) скачать через торрент бесплатно




    Джессика Джонс / Jessica Jones (2015) WEBRip (сезон 1, серии 1 из 13) LostFilm (обновляемая) скачать через торрент бесплатно

    Опубликовал: Админ | Дата: 30-11-2015, 04:01 | Просмотров: 150

    Производство: США/ABC Studios, Marvel Studios, Netflix
    Жанр: Боевик, Драма, Криминал
    Режиссер: С.Дж. Кларксон, Дэвид Петрарка, Стивен Серджик

    Актеры
    Кристен Риттер, Дэвид Теннант, Майк Колтер, Рэйчел Тейлор, Кэрри-Энн Мосс, Эйка Дарвилл, Эрин Мориарти, Уил Трэвэл, Сьюзи Абромейт, Фил Каппадора

    Описание

    После трагического завершения недолгой карьеры супергероини Джессика Джонс пытается наладить жизнь и открывает собственное детективное агентство, где по долгу службы ей опять приходится иметь дело с людьми наделенными сверхспособностями. И однажды Джессика встретится с человеком из прошлого, которое она хотела бы забыть. Этим человеком окажется бывший югославский шпион Зебадайя Киллгрейв, также известный как Лиловый (Пурпурный) человек. В результате несчастного случая с химикатами Зебадайя не только изменил цвет кожи, но и обрел способность управлять разумом людей, чем особенно активно злоупотреблял встречаясь с юной Джессикой Джонс.

    Дата мировой премьеры: 20 ноября 2015
    Продолжительность: ~00: 52: 00 серия
    Качество видео: WEBRip
    Перевод: Многоголосый закадровый, профессиональный - LostFilm
    Видео: Xvid, 720x400, ~883 Kbps
    Аудио: MP3, 2 ch, 192 Kbps
    Код:

    General
    Complete name : \mybooklivePublicDownloadsРаздачаJessica.Jones.S01.LostFilmMarvels.Jessica.Jones.S01E01.rus.LostFilm.TV.avi
    Format : AVI
    Format/Info : Audio Video Interleave
    File size : 403 MiB
    Duration : 52mn 2s
    Overall bit rate mode : Variable
    Overall bit rate : 1 083 Kbps
    Writing application : Nandub v1.0rc2
    Writing library : Nandub build 1853/release
    Video
    ID : 0
    Format : MPEG-4 Visual
    Format profile : Advanced Simple@L5
    Format settings, BVOP : No
    Format settings, QPel : No
    Format settings, GMC : No warppoints
    Format settings, Matrix : Default (H.263)
    Codec ID : XVID
    Codec ID/Hint : XviD
    Duration : 52mn 2s
    Bit rate : 883 Kbps
    Width : 720 pixels
    Height : 400 pixels
    Display aspect ratio : 16:9
    Frame rate : 23.976 fps
    Color space : YUV
    Chroma subsampling : 4:2:0
    Bit depth : 8 bits
    Scan type : Progressive
    Compression mode : Lossy
    Bits/(Pixel*Frame) : 0.128
    Stream size : 329 MiB (82%)
    Writing library : XviD 1.2.1 (UTC 2008-12-04)
    Audio
    ID : 1
    Format : MPEG Audio
    Format version : Version 1
    Format profile : Layer 3
    Mode : Joint stereo
    Mode extension : MS Stereo
    Codec ID : 55
    Codec ID/Hint : MP3
    Duration : 52mn 2s
    Bit rate mode : Variable
    Bit rate : 192 Kbps
    Channel(s) : 2 channels
    Sampling rate : 48.0 KHz
    Compression mode : Lossy
    Stream size : 69.6 MiB (17%)
    Alignment : Aligned on interleaves
    Interleave, duration : 24 ms (0.58 video frame)
    Interleave, preload duration : 488 ms
    Writing library : LAME3.97b
    Encoding settings : -m j -V 4 -q 3 -lowpass 18.6 --abr 192


    Скриншоты для ознакомления




    Онлайн видео Джессика Джонс



    Джессика Джонс/Jessica Jones (2015) WEBRip (сезон 1, серии 1 из 13) LostFilm (обновляемая)
    загрузка...
    Рейтинг →
     (голосов: 1, оценка 3/5, голосовать можно 1 раз )

    Другие торренты по теме:

  • Джессика Джонс / Jessica Jones (2015) WEBRip (сезон 1, серии 1-4 из 13) BaibaKo (обновляемая) скачать через торрент бесплатно
  • Джессика Джонс / Jessica Jones (2015) WEBRip (сезон 1, серии 1-3 из 13) NewStudio (обновляемая) скачать через торрент бесплатно
  • Джессика Джонс / Jessica Jones (2015) WEBRip [H.264 / 1080p] (сезон 1, серии 1-2 из 13) BaibaKo (обновляемая) скачать через торрент бесплатно
  • Джессика Джонс / Jessica Jones (2015) WEBRip [H.264 / 720p-LQ] (сезон 1, серии 1-8 из 13) BaibaKo (обновляемая) скачать через торрент бесплатно
  • Джессика Джонс / Jessica Jones (2015) WEBRip [H.264 / 720p-LQ] (сезон 1, серии 1-13 из 13) NewStudio скачать через торрент бесплатно
  • Джессика Джонс / Jessica Jones (2015) WEBRip [H.264 / 720p] (сезон 1, серии 1-2 из 13) LostFilm (обновляемая) скачать через торрент бесплатно
  • Джессика Джонс / Jessica Jones (2015) WEBRip [H.264 / 1080p] (сезон 1, серии 1-13 из 13) LostFilm скачать через торрент бесплатно
  • Джессика Джонс / Jessica Jones (2015) WEBRip [H.264] (сезон 1, серии 1-13 из 13) NewStudio


    • Комментарии (0):

      Информация

      Информация

        Посетители, находящиеся в группе Гости, не могут оставлять комментарии в данной новости.

        ↓ Меню




        ↓ Опрос

        Вы добавили сайт в закладки?
        Да
        Нет


        Top 10 за месяц (Фильмы)