.
Авторизация | Регистрация
Хочешь лучшие торренты? Добавь свой email!
Добавить

Торрент скачать бесплатно

» » Доктор Хаус / House M.D. (2005) Blu-Ray Remux [H.264 / 1080p] (сезон 2, серии 1-24 из 24) LostFilm, Федосов, Домашний, СТБ скачать через торрент бесплатно




    Доктор Хаус / House M.D. (2005) Blu-Ray Remux [H.264 / 1080p] (сезон 2, серии 1-24 из 24) LostFilm, Федосов, Домашний, СТБ скачать через торрент бесплатно

    Опубликовал: Админ | Дата: 30-11-2015, 04:01 | Просмотров: 128

    Производство: США
    Жанр: комедия, драма
    Режиссер: Дэвид Шор

    Актеры
    Хью Лори, Лиза Эдельштейн, Омар Эппс, Роберт Шон Леонард, Дженнифер Моррисон, Джесси Спенсер и др.

    Описание

    Доктор Грегори Хауз (Хью Лори) не отличается проникновенностью в общении с больными и с удовольствием избегает их, если только есть возможность. О таком странном сюжете не догадывалась даже Ольга Полякова. Он сам всё время проводит в борьбе с собственной болью, а трость в его руке только подчеркивает его жесткую ядовитую манеру общения.
    Порой его поведение можно назвать почти бесчеловечным, и при этом он прекрасный врач, обладаюший нетипичным умом и безупречным инстинктом, что снискало ему глубокое уважение. Будучи инфекционистом, он ещё и замечательный диагност, который любит разгадывать медицинские загадки, чтобы спасти кому-то жизнь.

    Продолжительность: ~ 00: 44: 00 серия
    Качество видео: Blu-Ray Remux
    Перевод: многоголосый закадровый, профессиональный -LostFilm, Домашний, СТБ ; одноголосый закадровый -Федосов
    Вид субтитров: вшитые отключаемые
    Язык субтитров: русский, английский
    Видео: AVC/H.264, 1920x1080 (16: 9), ~ 21500 kbps
    Аудио #1 Rus: АС3, 6 ch, 448 kbps |многоголосый закадровый|
    Аудио #2 Rus: АС3, 2 ch, 192 kbps |одноголосый закадровый|
    Аудио #3 Rus: АС3, 2 ch, 320 kbps |многоголосый закадровый|
    Аудио #4 Ukr: АС3, 2 ch, 192 kbps |многоголосый закадровый|
    Аудио #5 Eng: DTS, 6 ch, 768 kbps |оригинал|
    Код:
    Полное имя : E:LoadingHouse.M.D.S02.BDRemux.1080pHouse.M.D.S02E01.BDRemux.1080p.mkv
    Формат : Matroska
    Версия формата : Version 4/Version 2
    Размер файла : 7, 29 Гбайт
    Продолжительность : 43 м.
    Режим общего битрейта : Переменный
    Общий поток : 23, 9 Мбит/сек
    Дата кодирования : UTC 2015-08-17 21:16:18
    Программа кодирования : mkvmerge v6.2.0 (\'Promised Land\') built on Apr 28 2013 12:22:01
    Библиотека кодирования : libebml v1.3.0 + libmatroska v1.4.0
    Видео
    Идентификатор : 1
    Формат : AVC
    Формат/Информация : Advanced Video Codec
    Профиль формата :High@L4.1
    Параметр CABAC формата : Да
    Параметр ReFrames формата : 4 кадра
    Идентификатор кодека : V_MPEG4/ISO/AVC
    Продолжительность : 43 м.
    Вид битрейта : Переменный
    Битрейт : 21, 5 Мбит/сек
    Максимальный битрейт : 33, 0 Мбит/сек
    Ширина : 1920 пикселей
    Высота : 1080 пикселей
    Соотношение сторон : 16:9
    Режим частоты кадров : Постоянный
    Частота кадров : 23, 976 кадра/сек
    Цветовое пространство : YUV
    Субдискретизация насыщенности : 4:2:0
    Битовая глубина : 8 бит
    Тип развёртки : Прогрессивная
    Бит/(Пиксели*Кадры) : 0.432
    Размер потока : 6, 56 Гбайт (90%)
    Язык : English
    Default : Да
    Forced : Нет
    Аудио #1
    Идентификатор : 2
    Формат : AC-3
    Формат/Информация : Audio Coding 3
    Расширение режима : CM (complete main)
    Параметр Endianness формата : Big
    Идентификатор кодека : A_AC3
    Продолжительность : 43 м.
    Вид битрейта : Постоянный
    Битрейт : 448 Кбит/сек
    Каналы : 6 каналов
    Расположение каналов : Front: L C R, Side: L R, LFE
    Частота : 48, 0 КГц
    Битовая глубина : 16 бит
    Метод сжатия : С потерями
    Размер потока : 140 Мбайт (2%)
    Язык : Russian
    Default : Да
    Forced : Нет
    Аудио #2
    Идентификатор : 3
    Формат : AC-3
    Формат/Информация : Audio Coding 3
    Расширение режима : CM (complete main)
    Параметр Endianness формата : Big
    Идентификатор кодека : A_AC3
    Продолжительность : 43 м.
    Вид битрейта : Постоянный
    Битрейт : 192 Кбит/сек
    Каналы : 2 канала
    Расположение каналов : Front: L R
    Частота : 48, 0 КГц
    Битовая глубина : 16 бит
    Метод сжатия : С потерями
    Размер потока : 60, 0 Мбайт (1%)
    Язык : Russian
    Default : Нет
    Forced : Нет
    Аудио #3
    Идентификатор : 4
    Формат : AC-3
    Формат/Информация : Audio Coding 3
    Расширение режима : CM (complete main)
    Параметр Endianness формата : Big
    Идентификатор кодека : A_AC3
    Продолжительность : 43 м.
    Вид битрейта : Постоянный
    Битрейт : 320 Кбит/сек
    Каналы : 2 канала
    Расположение каналов : Front: L R
    Частота : 48, 0 КГц
    Битовая глубина : 16 бит
    Метод сжатия : С потерями
    Размер потока : 100 Мбайт (1%)
    Язык : Russian
    Default : Нет
    Forced : Нет
    Аудио #4
    Идентификатор : 5
    Формат : AC-3
    Формат/Информация : Audio Coding 3
    Расширение режима : CM (complete main)
    Параметр Endianness формата : Big
    Идентификатор кодека : A_AC3
    Продолжительность : 43 м.
    Вид битрейта : Постоянный
    Битрейт : 192 Кбит/сек
    Каналы : 2 канала
    Расположение каналов : Front: L R
    Частота : 48, 0 КГц
    Битовая глубина : 16 бит
    Метод сжатия : С потерями
    Размер потока : 60, 0 Мбайт (1%)
    Язык : Ukrainian
    Default : Нет
    Forced : Нет
    Аудио #5
    Идентификатор : 6
    Формат : DTS
    Формат/Информация : Digital Theater Systems
    Режим : 16
    Параметр Endianness формата : Big
    Идентификатор кодека : A_DTS
    Продолжительность : 43 м.
    Вид битрейта : Постоянный
    Битрейт : 768 Кбит/сек
    Каналы : 6 каналов
    Расположение каналов : Front: L C R, Side: L R, LFE
    Частота : 48, 0 КГц
    Битовая глубина : 16 бит
    Метод сжатия : С потерями
    Размер потока : 240 Мбайт (3%)
    Язык : English
    Default : Нет
    Forced : Нет
    Текст #1
    Идентификатор : 7
    Формат : PGS
    Режим смешивания : zlib
    Идентификатор кодека : S_HDMV/PGS
    Идентификатор кодека/Информация : The same subtitle format used on BDs/HD-DVDs
    Язык : Russian
    Default : Нет
    Forced : Нет
    Текст #2
    Идентификатор : 8
    Формат : PGS
    Режим смешивания : zlib
    Идентификатор кодека : S_HDMV/PGS
    Идентификатор кодека/Информация : The same subtitle format used on BDs/HD-DVDs
    Язык : English
    Default : Нет
    Forced : Нет


    Скриншоты для ознакомления




    Онлайн видео Доктор Хаус



    Доктор Хаус/House M.D. (2005) Blu-Ray Remux [H.264/1080p] (сезон 2, серии 1-24 из 24) LostFilm, Федосов, Домашний, СТБ
    загрузка...
    Рейтинг →
     (голосов: 1, оценка 5/5, голосовать можно 1 раз )

    Другие торренты по теме:

  • Доктор Хаус / HOUSE M.D. (2004) BDRemux [H.264 / 1080p] (Сезон: 1 Серии: 1-22 из 22) (Кравец, Домашний) скачать через торрент бесплатно
  • Доктор Хаус / HOUSE M.D. (2005) BDRemux [H.264 / 1080p] (Сезон: 4 Серии: 1-16 из 16) (Кравец, Домашний) скачать через торрент бесплатно
  • Доктор Хаус / HOUSE M.D. (2005) BDRemux [H.264 / 1080p] (Сезон: 3 Серии: 1-24 из 24) (Кравец, Домашний) скачать через торрент бесплатно
  • Доктор Хаус / HOUSE M.D. (2010) BDRemux [H.264 / 1080p] (Сезон 8, серии 1-22 из 22) (LostFilm) скачать через торрент бесплатно
  • Доктор Хаус / HOUSE M.D. (2010) BDRemux [H.264 / 1080p] (Сезон 7, серии 1-23 из 23) (LostFilm) скачать через торрент бесплатно
  • Доктор Хаус / HOUSE M.D. (2009) BDRemux [H.264 / 1080p] (Сезон 6, серии 1-21 из 21) (Кравец) скачать через торрент бесплатно
  • Доктор Хаус / HOUSE M.D. (2008) BDRemux [H.264 / 1080p] (сезон 5, серии 1-24 из 24) (Кравец, Домашний) скачать через торрент бесплатно
  • Доктор Хаус / House M.D. (2004) BDRip [H.264 / 1080p-LQ] (сезон 1, серии 1-22 из 22) (LostFilm) скачать через торрент бесплатно


    • Комментарии (0):

      Информация

      Информация

        Посетители, находящиеся в группе Гости, не могут оставлять комментарии в данной новости.

        ↓ Меню




        ↓ Опрос

        Вы добавили сайт в закладки?
        Да
        Нет


        Top 10 за месяц (Фильмы)