.
Авторизация | Регистрация
Хочешь лучшие торренты? Добавь свой email!
Добавить

Торрент скачать бесплатно

» » Полёт Белой стрелы / Белая стрела. Возмездие (2015) SATRip (серии 1-6 из 12) (обновляемая) скачать через торрент бесплатно




    Полёт Белой стрелы / Белая стрела. Возмездие (2015) SATRip (серии 1-6 из 12) (обновляемая) скачать через торрент бесплатно

    Опубликовал: Админ | Дата: 29-11-2015, 04:02 | Просмотров: 165

    Производство: Россия /
    Жанр: детектив
    Режиссер: Алексей Шикин, Александр Строев

    Актеры
    Сергей Маховиков, Александр Саюталин, Андрей Аверьянов, Владимир Маслаков, Егор Кутенков, Мария Жиганова, Евгений Ганелин, Ирина Обрезкова, Ирина Основина, Евгений Такс, Никита Яковлев, Николай Солодилов, Виталий Салий и др.

    Описание

    Главные герои сериала на своей оперативной работе постоянно сталкиваются с несправедливостью. С несправедливостью закона, которому они служат. Уходят от наказания преступники, - убийцы, насильники, грабители, их неотмщённые жертвы вопиют в могилах, выжившие потерпевшие теряют веру в справедливость. Для чего тогда нужна настоящая мужская работа, работа оперативника? Не спать ночами, выслеживать и ловить, рискуя жизнью, негодяев для того, чтобы жиреющие судьи выпускали их на свободу в зале суда? Фемида должна быть беспристрастной, но не слепой! Наши герои по-новому смотрят на своё предназначение. Пусть дверцы клетки правосудия не могут удержать разлетающихся стервятников, - наши герои умеют стрелять и влёт.

    Дата премьеры в России: 28 ноября 2015
    Продолжительность: ~ 00: 48: 00 серия
    Качество видео: SATRip
    Видео: Xvid, 720x400 (16: 9), ~1800 Кбит/с
    Аудио: MP3, 2 канала, 128 Кбит/с, CBR
    Код:

    General
    Complete name : D:Белая стрела. Возмездие.SATRipBelaja.strela.Vozmezdie.01.SATRip.avi
    Format : AVI
    Format/Info : Audio Video Interleave
    File size : 661 MiB
    Duration : 47mn 40s
    Overall bit rate : 1 938 Kbps
    Writing application : VirtualDubMod 1.5.10.3 |www.virtualdub-fr.org|| (build 2550/release)
    Writing library : VirtualDubMod build 2550/release
    Video
    ID : 0
    Format : MPEG-4 Visual
    Format profile : Advanced Simple@L5
    Format settings, BVOP : 2
    Format settings, QPel : No
    Format settings, GMC : No warppoints
    Format settings, Matrix : Default (MPEG)
    Codec ID : XVID
    Codec ID/Hint : XviD
    Duration : 47mn 40s
    Bit rate : 1 800 Kbps
    Width : 720 pixels
    Height : 400 pixels
    Display aspect ratio : 16:9
    Frame rate : 25.000 fps
    Color space : YUV
    Chroma subsampling : 4:2:0
    Bit depth : 8 bits
    Scan type : Progressive
    Compression mode : Lossy
    Bits/(Pixel*Frame) : 0.250
    Stream size : 614 MiB (93%)
    Writing library : XviD 1.2.1 (UTC 2008-12-04)
    Audio
    ID : 1
    Format : MPEG Audio
    Format version : Version 1
    Format profile : Layer 3
    Mode : Joint stereo
    Mode extension : MS Stereo
    Codec ID : 55
    Codec ID/Hint : MP3
    Duration : 47mn 40s
    Bit rate mode : Constant
    Bit rate : 128 Kbps
    Channel(s) : 2 channels
    Sampling rate : 48.0 KHz
    Compression mode : Lossy
    Stream size : 43.6 MiB (7%)
    Alignment : Aligned on interleaves
    Interleave, duration : 40 ms (1.00 video frame)
    Interleave, preload duratio : 504 ms
    Writing library : LAME3.99r
    Encoding settings : -m j -V 4 -q 9 -lowpass 17 -b 128


    Скриншоты для ознакомления




    Онлайн видео Полёт Белой стрелы



    Полёт Белой стрелы/Белая стрела. Возмездие (2015) SATRip (серии 1-6 из 12) (обновляемая)
    загрузка...
    Рейтинг →
     (голосов: 1, оценка 3/5, голосовать можно 1 раз )

    Другие торренты по теме:

  • Полёт Белой стрелы / Белая стрела. Возмездие (2015) SATRip [H.264] (1-9 серии из 12) (обновляемая) скачать через торрент бесплатно
  • Полёт Белой стрелы / Белая стрела. Возмездие (2015) WEBRip (серии 1-12 из 12)


    • Комментарии (0):

      Информация

      Информация

        Посетители, находящиеся в группе Гости, не могут оставлять комментарии в данной новости.

        ↓ Меню




        ↓ Опрос

        Вы добавили сайт в закладки?
        Да
        Нет


        Top 10 за месяц (Фильмы)