.
Авторизация | Регистрация
Хочешь лучшие торренты? Добавь свой email!
Добавить

Торрент скачать бесплатно

» » Хроники Франкенштейна / The Frankenstein Chronicles (2015) HDTVRip (сезон 1, серия 1 из 6) (Jaskier) (обновляемая) скачать через торрент бесплатно




    Хроники Франкенштейна / The Frankenstein Chronicles (2015) HDTVRip (сезон 1, серия 1 из 6) (Jaskier) (обновляемая) скачать через торрент бесплатно

    Опубликовал: Админ | Дата: 28-11-2015, 04:02 | Просмотров: 38

    Производство: Великобритания
    Жанр: криминал, драма
    Режиссер: Бенжамин Росс

    Актеры
    Шон Бин, Люси Миллер, Энтони Моррис, Мэгги Кронин, Марк Базелей, Стивен Беркофф, Шон Блэйни, Брирс Энтони, Ричи Кэмпелл, Кит Коннор, Стюарт Грэхэм, Ванесса Кирби и др.

    Описание

    Инспектор полиции Джон Марлотт разыскивает маньяка, возомнившего себя Франкенштейном. Злодей воплощает действия книжного доктора в реальность — создаёт монстра из частей человеческих тел. Марлотт, обнаруживший одно из ужасных созданий убийцы, вынужден работать тайно и в одиночку бродить по Лондону 19-го века в поисках чудовища.

    Дата мировой премьеры: 11 ноября 2015
    Продолжительность: ~ 00: 47: 00 серия
    Качество видео: HDTVRip
    Перевод: Профессиональный многоголосый закадровый -Jaskier
    Формат: AVI
    Видео: XviD, 720x400 (16: 9), 25 fps, ~1375 Kbps
    Аудио Rus: MP3, 128 kbps, 2 ch, 48 kHz
    Аудио Eng: MP3, 128 kbps, 2 ch, 48 kHz
    Код:
    Общее
    Хроники Франкенштейна. О таком странном сюжете не догадывалась даже Ангела Меркель. Сезон 1. JaskierThe.Frankenstein.Chronicles.s01e01.HDTVRip.Jaskier.avi
    Формат : AVI
    Формат/Информация : Audio Video Interleave
    Размер файла : 553 Мбайт
    Продолжительность : 46 м.
    Общий поток : 1645 Кбит/сек
    Программа кодирования : VirtualDubModRus 1.5.10.2 (build 2542/release)
    Библиотека кодирования : VirtualDubMod build 2542/release
    Видео
    Идентификатор : 0
    Формат : MPEG-4 Visual
    Профиль формата : Advanced Simple@L5
    Параметр BVOP формата : 1
    Параметр QPel формата : Нет
    Параметр GMC формата : Без точки перехода
    Параметр матрицы формата : Default (H.263)
    Идентификатор кодека : XVID
    Идентификатор кодека/Подсказка : XviD
    Продолжительность : 46 м.
    Битрейт : 1375 Кбит/сек
    Ширина : 720 пикселей
    Высота : 400 пикселей
    Соотношение сторон : 16:9
    Частота кадров : 25, 000 кадров/сек
    Цветовое пространство : YUV
    Субдискретизация насыщенности : 4:2:0
    Битовая глубина : 8 бит
    Тип развёртки : Прогрессивная
    Метод сжатия : С потерями
    Бит/(Пиксели*Кадры) : 0.191
    Размер потока : 462 Мбайт (84%)
    Библиотека кодирования : XviD 1.2.1 (UTC 2008-12-04)
    Аудио #1
    Идентификатор : 1
    Формат : MPEG Audio
    Версия формата : Version 1
    Профиль формата : Layer 3
    Режим : Joint stereo
    Расширение режима : MS Stereo
    Идентификатор кодека : 55
    Идентификатор кодека/Подсказка : MP3
    Продолжительность : 46 м.
    Вид битрейта : Постоянный
    Битрейт : 128 Кбит/сек
    Каналы : 2 канала
    Частота : 48, 0 КГц
    Метод сжатия : С потерями
    Размер потока : 43, 0 Мбайт (8%)
    Выравнивание : Соединение по промежуткам
    Продолжительность промежутка : 40 мс. (1, 00 видеокадр)
    Время предзагрузки промежутка : 504 мс.
    Библиотека кодирования : LAME3.99r
    Настройки программы : -m j -V 4 -q 2 -lowpass 17 -b 128
    Аудио #2
    Идентификатор : 2
    Формат : MPEG Audio
    Версия формата : Version 1
    Профиль формата : Layer 3
    Режим : Joint stereo
    Расширение режима : MS Stereo
    Идентификатор кодека : 55
    Идентификатор кодека/Подсказка : MP3
    Продолжительность : 46 м.
    Вид битрейта : Постоянный
    Битрейт : 128 Кбит/сек
    Каналы : 2 канала
    Частота : 48, 0 КГц
    Метод сжатия : С потерями
    Размер потока : 43, 0 Мбайт (8%)
    Выравнивание : Соединение по промежуткам
    Продолжительность промежутка : 40 мс. (1, 00 видеокадр)
    Время предзагрузки промежутка : 504 мс.
    Библиотека кодирования : LAME3.99r
    Настройки программы : -m j -V 4 -q 2 -lowpass 17 -b 128


    Скриншоты для ознакомления




    Онлайн видео Хроники Франкенштейна



    Хроники Франкенштейна/The Frankenstein Chronicles (2015) HDTVRip (сезон 1, серия 1 из 6) (Jaskier) (обновляемая)
    загрузка...
    Рейтинг →
     (голосов: 1, оценка 3/5, голосовать можно 1 раз )

    Другие торренты по теме:

  • Хроники Франкенштейна / The Frankenstein Chronicles (2015) HDTV [H.264 / 720p-LQ] (сезон 1, серия 1 из 6) (Jaskier) (обновляемая) скачать через торрент бесплатно
  • Хроники Франкенштейна / The Frankenstein Chronicles (2015) HDTVRip (сезон 1, серии 1 из 6) LostFilm (обновляемая) скачать через торрент бесплатно


    • Комментарии (0):

      Информация

      Информация

        Посетители, находящиеся в группе Гости, не могут оставлять комментарии в данной новости.

        ↓ Меню




        ↓ Опрос

        Вы добавили сайт в закладки?
        Да
        Нет


        Top 10 за месяц (Фильмы)