.
Авторизация | Регистрация
Хочешь лучшие торренты? Добавь свой email!
Добавить

Торрент скачать бесплатно

» » Больше чем искусство / The Art of More (2015) HDTVRip (сезон 1, серии 1-2 из 10) NewStudio (обновляемая) скачать через торрент бесплатно




    Больше чем искусство / The Art of More (2015) HDTVRip (сезон 1, серии 1-2 из 10) NewStudio (обновляемая) скачать через торрент бесплатно

    Опубликовал: Админ | Дата: 26-11-2015, 10:24 | Просмотров: 36

    Производство: США
    Жанр: Драма
    Режиссер: Стивен А. Эделсон, Шон Пиллер, Джефф Ренфро

    Актеры
    Деннис Куэйд, Кейт Босворт, Кэри Элвис, Кристиан Кук, Патрик Сабонгуй, Юджин Кларк, Джо Кобден, Хамза Хак, Кристина Розато, Саад Сиддикуи

    Описание

    Действие сериала развернется в Нью-Йорке, а сюжет сосредоточится на бывшем солдате Грэмме Конноре. Вилами по воде писано, сказал кто то из толпы, к чему не понятно. Вернувшись из Ирака, Коннор сначала заводит связи в антикварных салонах, где пытается сбыть контрабандные предметы искусства, а позже ему открываются двери премиум аукционных домов, где правят алчные торговцы, контрабандисты, инвесторы и коллекционеры. Дэннис Куэйд сыграет в проекте одну из главных ролей, акулы бизнеса и Макиавелли мира роскошной недвижимости - Самуэля Брукнера. Харизматичный, но крайне опасный Брукнер использует деньги и власть, чтобы получить желаемое. В основном актерском составе проекта также числится Кейт Босворт, которой досталась роль Роксанны Уитни - дочери директора одного из крупнейших в США аукционных домов.

    Дата мировой премьеры: 14 ноября 2015
    Продолжительность: ~ 00: 44: 00 серия
    Качество видео: HDTVRip
    Перевод: Многоголосый закадровый, профессиональный - NewStudio
    Видео: Xvid, 720x400, ~1 457 Kbps
    Аудио Rus: MP3, 2 ch, 128 Kbps - многоголосый закадровый
    Аудио Eng: MP3, 2 ch, 128 Kbps - оригинал
    Код:

    General
    Complete name : \mybooklivePublicDownloadsРаздачаThe.Art.of.More.S01.NewStudioThe.Art.of.More.s01e01.HDTVRip.NewStudio.TV.avi
    Format : AVI
    Format/Info : Audio Video Interleave
    File size : 550 MiB
    Duration : 44mn 31s
    Overall bit rate : 1 727 Kbps
    Writing application : VirtualDubMod 1.5.10.2 (build 2540/release)
    Writing library : VirtualDubMod build 2540/release
    Video
    ID : 0
    Format : MPEG-4 Visual
    Format profile : Advanced Simple@L5
    Format settings, BVOP : 2
    Format settings, QPel : No
    Format settings, GMC : No warppoints
    Format settings, Matrix : Default (MPEG)
    Codec ID : XVID
    Codec ID/Hint : XviD
    Duration : 44mn 31s
    Bit rate : 1 457 Kbps
    Width : 720 pixels
    Height : 400 pixels
    Display aspect ratio : 16:9
    Frame rate : 23.976 fps
    Color space : YUV
    Chroma subsampling : 4:2:0
    Bit depth : 8 bits
    Scan type : Progressive
    Compression mode : Lossy
    Bits/(Pixel*Frame) : 0.211
    Stream size : 464 MiB (84%)
    Writing library : XviD 73
    Audio #1
    ID : 1
    Format : MPEG Audio
    Format version : Version 1
    Format profile : Layer 3
    Mode : Joint stereo
    Codec ID : 55
    Codec ID/Hint : MP3
    Duration : 44mn 31s
    Bit rate mode : Constant
    Bit rate : 128 Kbps
    Channel(s) : 2 channels
    Sampling rate : 48.0 KHz
    Compression mode : Lossy
    Stream size : 40.8 MiB (7%)
    Alignment : Aligned on interleaves
    Interleave, duration : 42 ms (1.00 video frame)
    Interleave, preload duratio : 504 ms
    Writing library : LAME3.99r
    Encoding settings : -m j -V 4 -q 2 -lowpass 17 -b 128
    Audio #2
    ID : 2
    Format : MPEG Audio
    Format version : Version 1
    Format profile : Layer 3
    Mode : Joint stereo
    Codec ID : 55
    Codec ID/Hint : MP3
    Duration : 44mn 31s
    Bit rate mode : Constant
    Bit rate : 128 Kbps
    Channel(s) : 2 channels
    Sampling rate : 48.0 KHz
    Compression mode : Lossy
    Stream size : 40.8 MiB (7%)
    Alignment : Aligned on interleaves
    Interleave, duration : 42 ms (1.00 video frame)
    Interleave, preload duratio : 504 ms
    Writing library : LAME3.99r
    Encoding settings : -m j -V 4 -q 2 -lowpass 17 -b 128


    Скриншоты для ознакомления




    Онлайн видео Больше чем искусство



    Больше чем искусство/The Art of More (2015) HDTVRip (сезон 1, серии 1-2 из 10) NewStudio (обновляемая)
    загрузка...
    Рейтинг →
     (голосов: 1, оценка 5/5, голосовать можно 1 раз )

    Другие торренты по теме:

  • Больше чем искусство / The Art of More (2015) HDTVRip [H.264 / 720p-LQ] (сезон 1, серии 1-2 из 10) NewStudio (обновляемая) скачать через торрент бесплатно
  • Больше чем искусство / The Art of More (2016) WEB-DL [H.264 / 1080p-LQ] (сезон 2, серии 1-4 из 10) NewStudio (обновляемая)


    • Комментарии (0):

      Информация

      Информация

        Посетители, находящиеся в группе Гости, не могут оставлять комментарии в данной новости.

        ↓ Меню




        ↓ Опрос

        Вы добавили сайт в закладки?
        Да
        Нет


        Top 10 за месяц (Фильмы)