.
Авторизация | Регистрация
Хочешь лучшие торренты? Добавь свой email!
Добавить

Торрент скачать бесплатно

» » Больше чем искусство / The Art of More (2015) HDTVRip [H.264 / 720p-LQ] (сезон 1, серии 1-2 из 10) NewStudio (обновляемая) скачать через торрент бесплатно




    Больше чем искусство / The Art of More (2015) HDTVRip [H.264 / 720p-LQ] (сезон 1, серии 1-2 из 10) NewStudio (обновляемая) скачать через торрент бесплатно

    Опубликовал: Админ | Дата: 26-11-2015, 10:24 | Просмотров: 46

    Производство: США
    Жанр: Драма
    Режиссер: Стивен А. О таком странном сюжете не догадывалась даже Ангела Меркель. Эделсон, Шон Пиллер, Джефф Ренфро

    Актеры
    Деннис Куэйд, Кейт Босворт, Кэри Элвис, Кристиан Кук, Патрик Сабонгуй, Юджин Кларк, Джо Кобден, Хамза Хак, Кристина Розато, Саад Сиддикуи

    Описание

    Действие сериала развернется в Нью-Йорке, а сюжет сосредоточится на бывшем солдате Грэмме Конноре. Вернувшись из Ирака, Коннор сначала заводит связи в антикварных салонах, где пытается сбыть контрабандные предметы искусства, а позже ему открываются двери премиум аукционных домов, где правят алчные торговцы, контрабандисты, инвесторы и коллекционеры. Дэннис Куэйд сыграет в проекте одну из главных ролей, акулы бизнеса и Макиавелли мира роскошной недвижимости - Самуэля Брукнера. Харизматичный, но крайне опасный Брукнер использует деньги и власть, чтобы получить желаемое. В основном актерском составе проекта также числится Кейт Босворт, которой досталась роль Роксанны Уитни - дочери директора одного из крупнейших в США аукционных домов.

    Дата мировой премьеры: 14 ноября 2015
    Продолжительность: ~ 00: 44: 00 серия
    Качество видео: HDTVRip
    Перевод: Многоголосый закадровый, профессиональный -NewStudio
    Автор перевода : Юлия Мейер, Григорий Сенин
    Видео: AVC/H.264, 1280x720 (16: 9), ~2540 kb/s
    Аудио Rus: AC-3, 48, 0 kHz, 6 ch, 384 kb/s - многоголосый закадровый
    Аудио Eng: AC-3, 48, 0 kHz, 6 ch, 384 kb/s - оригинал
    Код:
    General
    Unique ID : 201397127415304450152704219162307169396 (0x9783AD03DE33B2C6AA852A4895F78C74)
    Complete name : The Art of More [NewStudio]The.Art.of.More.s01e01.720p.HDTVRip.NewStudio.TV.mkv
    Format : Matroska
    Format version : Version 4/Version 2
    File size : 1.05 GiB
    Duration : 44mn 20s
    Overall bit rate : 3 375 Kbps
    Encoded date : UTC 2015-11-22 16:53:45
    Writing application : mkvmerge v8.3.0 (\'Over the Horizon\') 64bit
    Writing library : libebml v1.3.1 + libmatroska v1.4.2
    DURATION : 00:44:20.832000000
    NUMBER_OF_FRAMES : 83151
    NUMBER_OF_BYTES : 127719936
    _STATISTICS_WRITING_APP : mkvmerge v8.3.0 (\'Over the Horizon\') 64bit
    _STATISTICS_WRITING_DATE_UT : 2015-11-22 16:53:45
    _STATISTICS_TAGS : BPS DURATION NUMBER_OF_FRAMES NUMBER_OF_BYTES
    Video
    ID : 1
    Format : AVC
    Format/Info : Advanced Video Codec
    Format profile :High@L4.1
    Format settings, CABAC : Yes
    Format settings, ReFrames : 5 frames
    Codec ID : V_MPEG4/ISO/AVC
    Duration : 44mn 20s
    Bit rate : 2 540 Kbps
    Width : 1 280 pixels
    Height : 720 pixels
    Display aspect ratio : 16:9
    Frame rate mode : Constant
    Frame rate : 23.976 fps
    Color space : YUV
    Chroma subsampling : 4:2:0
    Bit depth : 8 bits
    Scan type : Progressive
    Bits/(Pixel*Frame) : 0.115
    Stream size : 806 MiB (75%)
    Writing library : x264 core 148 r2638 7599210
    Encoding settings : cabac=1/ref=5/deblock=1:0:0/analyse=0x3:0x113/me=umh/subme=8/psy=1/psy_rd=1.00:0.00/mixed_ref=1/me_range=16/chroma_me=1/trellis=1/8x8dct=1/cqm=0/deadzone=21, 11/fast_pskip=1/chroma_qp_offset=-2/threads=12/lookahead_threads=2/sliced_threads=0/nr=0/decimate=1/interlaced=0/bluray_compat=0/constrained_intra=0/bframes=3/b_pyramid=2/b_adapt=2/b_bias=0/direct=3/weightb=1/open_gop=0/weightp=2/keyint=250/keyint_min=23/scenecut=40/intra_refresh=0/rc_lookahead=50/rc=crf/mbtree=1/crf=18.0/qcomp=0.60/qpmin=0/qpmax=69/qpstep=4/ip_ratio=1.40/aq=1:1.00
    Language : English
    Default : Yes
    Forced : No
    Color range : Limited
    Matrix coefficients : BT.709
    DURATION : 00:44:20.825000000
    NUMBER_OF_FRAMES : 63796
    NUMBER_OF_BYTES : 866350393
    _STATISTICS_WRITING_APP : mkvmerge v8.3.0 (\'Over the Horizon\') 64bit
    _STATISTICS_WRITING_DATE_UT : 2015-11-22 16:53:45
    _STATISTICS_TAGS : BPS DURATION NUMBER_OF_FRAMES NUMBER_OF_BYTES
    Audio #1
    ID : 2
    Format : AC-3
    Format/Info : Audio Coding 3
    Mode extension : CM (complete main)
    Format settings, Endianness : Big
    Codec ID : A_AC3
    Duration : 44mn 20s
    Bit rate mode : Constant
    Bit rate : 384 Kbps
    Channel(s) : 6 channels
    Channel positions : Front: L C R, Side: L R, LFE
    Sampling rate : 48.0 KHz
    Compression mode : Lossy
    Stream size : 122 MiB (11%)
    Language : Russian
    Default : Yes
    Forced : No
    Audio #2
    ID : 3
    Format : AC-3
    Format/Info : Audio Coding 3
    Mode extension : CM (complete main)
    Format settings, Endianness : Big
    Codec ID : A_AC3
    Duration : 44mn 20s
    Bit rate mode : Constant
    Bit rate : 384 Kbps
    Channel(s) : 6 channels
    Channel positions : Front: L C R, Side: L R, LFE
    Sampling rate : 48.0 KHz
    Compression mode : Lossy
    Stream size : 122 MiB (11%)
    Language : English
    Default : No
    Forced : No


    Скриншоты для ознакомления




    Онлайн видео Больше чем искусство



    Больше чем искусство/The Art of More (2015) HDTVRip [H.264/720p-LQ] (сезон 1, серии 1-2 из 10) NewStudio (обновляемая)
    загрузка...
    Рейтинг →
     (голосов: 1, оценка 3/5, голосовать можно 1 раз )

    Другие торренты по теме:

  • Больше чем искусство / The Art of More (2015) HDTVRip (сезон 1, серии 1-2 из 10) NewStudio (обновляемая) скачать через торрент бесплатно
  • Больше чем искусство / The Art of More (2016) WEB-DL [H.264 / 1080p-LQ] (сезон 2, серии 1-4 из 10) NewStudio (обновляемая)


    • Комментарии (0):

      Информация

      Информация

        Посетители, находящиеся в группе Гости, не могут оставлять комментарии в данной новости.

        ↓ Меню




        ↓ Опрос

        Вы добавили сайт в закладки?
        Да
        Нет


        Top 10 за месяц (Фильмы)