.
Авторизация | Регистрация
Хочешь лучшие торренты? Добавь свой email!
Добавить

Торрент скачать бесплатно

» » Команда (2015) SATRip (серии 1-4 из 32) (обновляемая) скачать через торрент бесплатно




    Команда (2015) SATRip (серии 1-4 из 32) (обновляемая) скачать через торрент бесплатно

    Опубликовал: Админ | Дата: 25-11-2015, 04:00 | Просмотров: 73

    Производство: Россия/Триикс Медиа
    Жанр: детектив
    Режиссер: Арменак Назикян, Армен Арутюнян-Елецкий, Игорь Драка

    Актеры
    Владимир Гусев, Сергей Алимпиев, Екатерина Новикова, Михаил Трясоруков, Александр Карпухов, Константин Воробьёв, Зоя Буряк, Ольга Каратеева, Мария Скуратова, Андрей Смелов, Иван Батарев, Олег Леваков, Андрей Полищук, Фархад Махмудов, Алексей Фокин, Мария Цветкова, Евгений Сиротин и др.

    Описание

    Василий Степанович Гаврилов служит в милиции уже 30 с лишним лет. На пенсию его провожают уже давно, но безрезультатно – Гаврилов уперся и сам на заслуженный отдых не идет, а уйти его начальство опасается. Позже он признается, что на самом деле давно хочет покинуть свою беспокойную работу, но не делает этого из принципа – чтоб не радовать своего начальника подполковника Кирсанова, с которым у них давняя антипатия.

    Дата премьеры в России: 23 ноября 2015
    Продолжительность: ~ 00: 42: 00 серия
    Качество видео: SATRip
    Видео: Xvid, 720x400 (16: 9), ~1800 Кбит/с
    Аудио: MP3, 2 канала, 128 Кбит/с, CBR
    Код:

    General
    Complete name : D:Команда SatRipKomanda.01.SATRip.avi
    Format : AVI
    Format/Info : Audio Video Interleave
    File size : 589 MiB
    Duration : 42mn 31s
    Overall bit rate : 1 938 Kbps
    Writing application : VirtualDubMod 1.5.10.3 |www.virtualdub-fr.org|| (build 2550/release)
    Writing library : VirtualDubMod build 2550/release
    Video
    ID : 0
    Format : MPEG-4 Visual
    Format profile : Advanced Simple@L5
    Format settings, BVOP : 2
    Format settings, QPel : No
    Format settings, GMC : No warppoints
    Format settings, Matrix : Default (H.263)
    Codec ID : XVID
    Codec ID/Hint : XviD
    Duration : 42mn 31s
    Bit rate : 1 800 Kbps
    Width : 720 pixels
    Height : 400 pixels
    Display aspect ratio : 16:9
    Frame rate : 25.000 fps
    Color space : YUV
    Chroma subsampling : 4:2:0
    Bit depth : 8 bits
    Scan type : Progressive
    Compression mode : Lossy
    Bits/(Pixel*Frame) : 0.250
    Stream size : 548 MiB (93%)
    Writing library : XviD 1.2.1 (UTC 2008-12-04)
    Audio
    ID : 1
    Format : MPEG Audio
    Format version : Version 1
    Format profile : Layer 3
    Mode : Joint stereo
    Codec ID : 55
    Codec ID/Hint : MP3
    Duration : 42mn 31s
    Bit rate mode : Constant
    Bit rate : 128 Kbps
    Channel(s) : 2 channels
    Sampling rate : 48.0 KHz
    Compression mode : Lossy
    Stream size : 38.9 MiB (7%)
    Alignment : Aligned on interleaves
    Interleave, duration : 40 ms (1.00 video frame)
    Interleave, preload duratio : 504 ms
    Writing library : LAME3.99r
    Encoding settings : -m j -V 4 -q 9 -lowpass 17 -b 128


    Скриншоты для ознакомления




    Онлайн видео Команда (2015) SATRip (серии 1



    Команда (2015) SATRip (серии 1-4 из 32) (обновляемая)
    загрузка...
    Рейтинг →
     (голосов: 1, оценка 4/5, голосовать можно 1 раз )

    Другие торренты по теме:

  • Квартал и его команда, 10 лет юмора. Выпуск №1 / Квартал і його команда (2014.10.11) SATRip
  • Квартал и его команда, 10 лет юмора. Выпуск №3 / Квартал і його команда (2014.11.01) SATRip скачать через торрент бесплатно
  • Квартал и его команда, 10 лет юмора. Выпуск №4 / Квартал і його команда (2014.11.08) SATRip скачать через торрент бесплатно
  • Квартал и его команда, 10 лет юмора. Выпуск №6 / Квартал і його команда (2014.11.16) SATRip
  • Квартал и его команда, 10 лет юмора. Выпуск №5 / Квартал і його команда (2014.11.16) SATRip
  • Белка и Стрелка. Спортивная команда (2014) SATRip [Обновляемая] (Серии 1-4 из )
  • Discovery: Разрушители легенд. Спецвыпуск: Команда-А / MythBusters. The A-Team Special (2015) SATRip (Сезон 15, эпизод 03) [Jetvis Studio] скачать через торрент бесплатно
  • Discovery: Разрушители легенд. Спецвыпуск: Команда-А / MythBusters. The A-Team Special (2015) SATRip (Сезон 15, эпизод 03) [Discovery] скачать через торрент бесплатно


    • Комментарии (0):

      Информация

      Информация

        Посетители, находящиеся в группе Гости, не могут оставлять комментарии в данной новости.

        ↓ Меню




        ↓ Опрос

        Вы добавили сайт в закладки?
        Да
        Нет


        Top 10 за месяц (Фильмы)