.
Авторизация | Регистрация
Хочешь лучшие торренты? Добавь свой email!
Добавить

Торрент скачать бесплатно

» » Восьмидесятые (2015) SATRip (сезон 5, серии 1-2 из 20) (обновляемая) скачать через торрент бесплатно




    Восьмидесятые (2015) SATRip (сезон 5, серии 1-2 из 20) (обновляемая) скачать через торрент бесплатно

    Опубликовал: Админ | Дата: 24-11-2015, 04:02 | Просмотров: 64

    Производство: Россия, Леан-М, Гуд Стори Медиа
    Жанр: комедия, мелодрама
    Режиссер: Юлия Лёвкина

    Актеры
    Александр Якин, Александр Половцев, Мария Аронова, Александр Новицкий, Дмитрий Белоцерковский, Наталья Земцова, Анна Цуканова, Никита Ефремов, Роман Фомин, Анастасия Балякина, Леонид Громов, Юлия Сулес, Наталья Карпунина, Артур Ваха, Игорь Лагутин, Роман Маякин, Ирина Чипиженко, Елена Лебедева

    Описание

    Сериал Восьмидесятые - это история про один из самых интересных периодов в жизни нашей страны. Мы как-то обходились без интернета и мобильного телефона. А чтобы передать ключ от квартиры, просто оставляли его под ковриком. Это было странное время, когда нельзя было ничего купить, но достать можно было все. В каждой квартире обязательно стояли югославский гарнитур и шведская стенка, а лучшим подарком были французские духи и электрическая бритва.

    Продолжительность: ~00: 24: 00 серия
    Качество видео: SATRip
    Видео: XviD, 720х400 (16: 9), ~1645 Kbps
    Аудио: 48 kHz, MPEG Layer 3, 2 ch, ~192.00 kbps avg
    Код:
    Общее
    Полное имя : D:РелизыВосьмидесятые-5.2015.SATRip.nnm-club1.серия.avi
    Формат : AVI
    Формат/Информация : Audio Video Interleave
    Размер файла : 322 Мбайт
    Продолжительность : 24 м.
    Общий поток : 1846 Кбит/сек
    Программа кодирования : VirtualDubMod 1.5.10.3 (build 2550/release)
    Библиотека кодирования : VirtualDubMod build 2550/release
    Видео
    Идентификатор : 0
    Формат : MPEG-4 Visual
    Профиль формата : Simple@L3
    Параметр BVOP формата : Нет
    Параметр QPel формата : Нет
    Параметр GMC формата : Без точки перехода
    Параметр матрицы формата : Default (H.263)
    Идентификатор кодека : XVID
    Идентификатор кодека/Подсказка : XviD
    Продолжительность : 24 м.
    Битрейт : 1645 Кбит/сек
    Ширина : 720 пикселей
    Высота : 400 пикселей
    Соотношение сторон : 16:9
    Частота кадров : 25, 000 кадров/сек
    Цветовое пространство : YUV
    Субдискретизация насыщенности : 4:2:0
    Битовая глубина : 8 бит
    Тип развёртки : Прогрессивная
    Метод сжатия : С потерями
    Бит/(Пиксели*Кадры) : 0.228
    Размер потока : 286 Мбайт (89%)
    Библиотека кодирования : XviD 1.3.0.dev55
    Аудио
    Идентификатор : 1
    Формат : MPEG Audio
    Версия формата : Version 1
    Профиль формата : Layer 3
    Режим : Joint stereo
    Расширение режима : MS Stereo
    Идентификатор кодека : 55
    Идентификатор кодека/Подсказка : MP3
    Продолжительность : 24 м.
    Вид битрейта : Постоянный
    Битрейт : 192 Кбит/сек
    Каналы : 2 канала
    Частота : 48, 0 КГц
    Метод сжатия : С потерями
    Размер потока : 33, 4 Мбайт (10%)
    Выравнивание : Разделение по промежуткам
    Продолжительность промежутка : 40 мс. (1, 00 видеокадр)
    Время предзагрузки промежутка : 500 мс.


    Скриншоты для ознакомления




    Онлайн видео Восьмидесятые (2015) SATRip (сезон любимого сериала 5, серии 1



    Восьмидесятые (2015) SATRip (сезон 5, серии 1-2 из 20) (обновляемая)
    загрузка...
    Рейтинг →
     (голосов: 1, оценка 5/5, голосовать можно 1 раз )

    Другие торренты по теме:

  • Восьмидесятые-4 (2014) SATRip (1-9 серия из 20) (обновляемая)
  • Восьмидесятые (2015) SATRip (сезон 5, серии 1-4 из 20) (обновляемая) скачать через торрент бесплатно
  • Восьмидесятые (2015) SATRip (сезон 1-5, серии 1-92 из 92) скачать через торрент бесплатно
  • Восьмидесятые (2016) SATRip (сезон 6, серии 1-2 из 13) (обновляемая)
  • Восьмидесятые (2016) SATRip [H.264] (сезон 6, серии 1-3 из 13) (Обновляемая)
  • Восьмидесятые (2015) SATRip (сезон 1-6, серии 1-105 из 105)


    • Комментарии (0):

      Информация

      Информация

        Посетители, находящиеся в группе Гости, не могут оставлять комментарии в данной новости.

        ↓ Меню




        ↓ Опрос

        Вы добавили сайт в закладки?
        Да
        Нет


        Top 10 за месяц (Фильмы)