.
Авторизация | Регистрация
Хочешь лучшие торренты? Добавь свой email!
Добавить

Торрент скачать бесплатно

» » Асфальт / Asphalte (1980) VHSRip скачать через торрент бесплатно




    Асфальт / Asphalte (1980) VHSRip скачать через торрент бесплатно

    Опубликовал: Админ | Дата: 24-11-2015, 04:00 | Просмотров: 91

    Производство: Франция
    Жанр: Драма
    Режиссер: Дени Амар

    Актеры
    Кароль Лор, Жан Янн, Жан-Пьер Марьель, Филипп Огуз, Луи Сенье, Даниель Лебрюн, Николь Вассель, Рене Булок, Даниэль Сарки, Кристоф Бурсейе

    Описание

    Начинаются летние отпуска. Миллионы автомобилистов спешат добраться до места своего отдыха, дабы забыть о тревогах и заботах повседневной жизни. Однако для Жюльет, Альбера, Жегера и Артюра путешествие окажется фатальным, завершившись трагедией, которая навсегда изменит их жизнь.

    Релиз от: ФЕНИКС
    Продолжительность: 01: 22: 34
    Качество видео: VHSRip
    Перевод: Дублированный
    Видео: DivX 5, 688x432, ~1122 Кбит/сек
    Аудио: MP3, 2 ch, 128 Кбит/сек, CBR
    Код:

    Общее
    Полное имя : E:Асфальт (1980) VHSRip.avi
    Формат : AVI
    Формат/Информация : Audio Video Interleave
    Размер файла : 744 Мбайт
    Продолжительность : 1 ч. 22 м.
    Общий поток : 1260 Кбит/сек
    Программа кодирования : VirtualDubModRus 1.5.10.2 (build 2540/release)
    Библиотека кодирования : VirtualDubMod build 2540/release
    Видео
    Идентификатор : 0
    Формат : MPEG-4 Visual
    Параметр BVOP формата : 1
    Параметр QPel формата : Нет
    Параметр GMC формата : Без точки перехода
    Параметр матрицы формата : Default (H.263)
    Режим смешивания : Сжатый битовый поток
    Идентификатор кодека : DX50
    Идентификатор кодека/Подсказка : DivX 5
    Продолжительность : 1 ч. 22 м.
    Битрейт : 1122 Кбит/сек
    Ширина : 688 пикселей
    Высота : 432 пикселя
    Соотношение сторон : 16:10
    Частота кадров : 25, 000 кадров/сек
    Цветовое пространство : YUV
    Субдискретизация насыщенности : 4:2:0
    Битовая глубина : 8 бит
    Тип развёртки : Прогрессивная
    Метод сжатия : С потерями
    Бит/(Пиксели*Кадры) : 0.151
    Размер потока : 663 Мбайт (89%)
    Библиотека кодирования : DivX 6.8.5 (UTC 2009-08-20)
    Аудио
    Идентификатор : 1
    Формат : MPEG Audio
    Версия формата : Version 1
    Профиль формата : Layer 3
    Режим : Joint stereo
    Расширение режима : MS Stereo
    Идентификатор кодека : 55
    Идентификатор кодека/Подсказка : MP3
    Продолжительность : 1 ч. 22 м.
    Вид битрейта : Постоянный
    Битрейт : 128 Кбит/сек
    Каналы : 2 канала
    Частота : 48, 0 КГц
    Метод сжатия : С потерями
    Размер потока : 75, 6 Мбайт (10%)
    Выравнивание : Соединение по промежуткам
    Продолжительность промежутка : 40 мс. (1, 00 видеокадр)
    Время предзагрузки промежутка : 504 мс.
    Библиотека кодирования : LAME3.97b
    Настройки программы : -m j -V 4 -q 2 -lowpass 17 -b 128


    Скриншоты для ознакомления




    Онлайн видео Асфальт



    Асфальт/Asphalte (1980) VHSRip
    загрузка...
    Рейтинг →
     (голосов: 1, оценка 3/5, голосовать можно 1 раз )

    Другие торренты по теме:

  • Асфальт / Asphalte (2015) WEB-DLRip [VO]


    • Комментарии (0):

      Информация

      Информация

        Посетители, находящиеся в группе Гости, не могут оставлять комментарии в данной новости.

        ↓ Меню




        ↓ Опрос

        Вы добавили сайт в закладки?
        Да
        Нет


        Top 10 за месяц (Фильмы)