.
Авторизация | Регистрация
Хочешь лучшие торренты? Добавь свой email!
Добавить

Торрент скачать бесплатно

» » Слуга народа (2015) WEB-DLRip [H.264 / 1080p-LQ] (серии 1-4 из 24) [ОБНОВЛЯЕМАЯ] скачать через торрент бесплатно




    Слуга народа (2015) WEB-DLRip [H.264 / 1080p-LQ] (серии 1-4 из 24) [ОБНОВЛЯЕМАЯ] скачать через торрент бесплатно

    Опубликовал: Админ | Дата: 19-11-2015, 04:00 | Просмотров: 120

    Производство: Украина/Студия Квартал-95
    Жанр: Политическая комедия
    Режиссер: Алексей Кирющенко

    Актеры
    Владимир Зеленский, Станислав Боклан, Юрий Крапов, Елена Кравец, Александр Пикалов, Степан Казанин, Наталья Сумская, Виктор Сарайкин, Екатерина Кистень, Анна Кошмал

    Описание

    Что будет, если президентом станет обычный человек из народа? Новый, честный, принципиальный и, самое главное, – умный человек. Именно эти мысли однажды сподвигли народ избрать президентом простого учителя истории Василия Голобородько... Неожиданно для всех страна получила гаранта, который живет в обычной квартире. Который спокойно идет по улице без армии охранников и запросто ездит на маршрутке, который получает скромную зарплату и привычно иногда занимает у друга до зарплаты. В общем, который живет – как все. Ведь он точно знает - когда царь начнет жить как простой учитель, вскоре простой учитель заживет как царь! И пускай у него нет серебряных пуль и осинового кола, каждое утро Василий Петрович выходит на борьбу с нечистой силой и без устали воюет с армадой коррумпированных и насквозь прогнивших чинуш, разгребает авгиевы конюшни государства. Правда, он не учел одного. Система, где все привыкли безбожно воровать, откатывать и дерибанить – будет против такой заботы о народе.

    Дата премьеры в Украине: 16.11.2015
    Продолжительность: ~00: 25: 00 серия
    Качество видео: WEB-DLRip
    Язык озвучки: Русский
    Субтитры: Отсутствуют
    Видео: AVC/H.264, 1920х1080 (16: 9), ~4000 kbps
    Аудио: AC3, 2 ch, 192 kbps, CBR
    Код:
    Общее
    Уникальный идентификатор : 175044199478953003182556510220651849415 (0x83B0495A7976B68289D2B138C5CBE6C7)
    Полное имя : F:DOWNLOADSСлуга народа (2015) WEB-DLRip 1080Слуга народа - 01-02 серии.mkv
    Формат : Matroska
    Версия формата : Version 2
    Размер файла : 1, 27 Гбайт
    Продолжительность : 43 м.
    Режим общего битрейта : Переменный
    Общий поток : 4197 Кбит/сек
    Дата кодирования : UTC 2015-11-17 19:16:54
    Программа кодирования : mkvmerge v7.8.0 (\'River Man\') 32bit built on Apr 3 2015 12:11:22
    Библиотека кодирования : libebml v1.3.1 + libmatroska v1.4.2
    Видео
    Идентификатор : 1
    Формат : AVC
    Формат/Информация : Advanced Video Codec
    Профиль формата : High@L4
    Параметр CABAC формата : Да
    Параметр ReFrames формата : 3 кадра
    Идентификатор кодека : V_MPEG4/ISO/AVC
    Продолжительность : 43 м.
    Вид битрейта : Переменный
    Битрейт : 4000 Кбит/сек
    Максимальный битрейт : 40, 0 Мбит/сек
    Ширина : 1920 пикселей
    Высота : 1080 пикселей
    Соотношение сторон : 16:9
    Режим частоты кадров : Постоянный
    Частота кадров : 25, 000 кадров/сек
    Цветовое пространство : YUV
    Субдискретизация насыщенности : 4:2:0
    Битовая глубина : 8 бит
    Тип развёртки : Прогрессивная
    Бит/(Пиксели*Кадры) : 0.077
    Размер потока : 1, 19 Гбайт (93%)
    Библиотека кодирования : x264 core 142 r2389 956c8d8
    Настройки программы : cabac=1/ref=3/deblock=1:0:0/analyse=0x3:0x133/me=umh/subme=7/psy=1/psy_rd=1.00:0.00/mixed_ref=1/me_range=32/chroma_me=1/trellis=2/8x8dct=1/cqm=0/deadzone=21, 11/fast_pskip=1/chroma_qp_offset=-2/threads=12/lookahead_threads=2/sliced_threads=0/nr=0/decimate=1/interlaced=0/bluray_compat=0/constrained_intra=0/bframes=0/weightp=0/keyint=75/keyint_min=26/scenecut=40/intra_refresh=0/rc_lookahead=50/rc=2pass/mbtree=0/bitrate=4000/ratetol=1.0/qcomp=0.20/qpmin=10/qpmax=51/qpstep=4/cplxblur=20.0/qblur=0.5/vbv_maxrate=5000/vbv_bufsize=5000/nal_hrd=none/filler=0/ip_ratio=1.40/aq=1:1.0
    Default : Да
    Forced : Нет
    Цветовой диапазон : Limited
    Основные цвета : BT.709
    Характеристики трансфера : BT.709
    Коэффициенты матрицы : BT.709
    Аудио
    Идентификатор : 2
    Формат : AC-3
    Формат/Информация : Audio Coding 3
    Расширение режима : CM (complete main)
    Параметр Endianness формата : Big
    Идентификатор кодека : A_AC3
    Продолжительность : 43 м.
    Вид битрейта : Постоянный
    Битрейт : 192 Кбит/сек
    Каналы : 2 канала
    Расположение каналов : Front: L R
    Частота : 44, 1 КГц
    Метод сжатия : С потерями
    Размер потока : 59, 6 Мбайт (5%)
    Default : Да
    Forced : Нет


    Скриншоты для ознакомления




    Онлайн видео Слуга народа (2015) WEB-DLRip [H.264



    Слуга народа (2015) WEB-DLRip [H.264/1080p-LQ] (серии 1-4 из 24) [ОБНОВЛЯЕМАЯ]
    загрузка...
    Рейтинг →
     (голосов: 1, оценка 3/5, голосовать можно 1 раз )

    Другие торренты по теме:

  • Слуга народа (2015) SATRip (Серия 1) скачать через торрент бесплатно
  • Слуга народа (2015) SATRip (04 из 24 серий) [ОБНОВЛЯЕМАЯ] скачать через торрент бесплатно
  • Слуга народа (2015) WEB-DLRip (серии 1-4 из 24) [ОБНОВЛЯЕМАЯ] скачать через торрент бесплатно
  • Слуга народа (2015) WEB-DLRip [H.264 / 720p-LQ] (серии 1-4 из 24) [ОБНОВЛЯЕМАЯ] скачать через торрент бесплатно
  • Слуга народа 2 (2016) WEB-DL [H.264 / 1080p-LQ]
  • Слуга народа 2 (2016) WEB-DLRip


    • Комментарии (0):

      Информация

      Информация

        Посетители, находящиеся в группе Гости, не могут оставлять комментарии в данной новости.

        ↓ Меню




        ↓ Опрос

        Вы добавили сайт в закладки?
        Да
        Нет


        Top 10 за месяц (Фильмы)