.
Авторизация | Регистрация
Хочешь лучшие торренты? Добавь свой email!
Добавить

Торрент скачать бесплатно

» » Деффчонки (2015) WEB-DLRip (сезон 5, серии 1-3 из ) (обновляемая) скачать через торрент бесплатно




    Деффчонки (2015) WEB-DLRip (сезон 5, серии 1-3 из ) (обновляемая) скачать через торрент бесплатно

    Опубликовал: Админ | Дата: 19-11-2015, 04:00 | Просмотров: 42

    Производство: Россия/Киноконцерн Косфильм
    Жанр: Ситком, комедия
    Режиссер: Сергей Корягин, Ольга Френкель, Нигина Сайфуллаева

    Актеры
    Галина Боб, Анастасия Денисова, Полина Максимова, Таисия Вилкова, Родион Юрин, Наталья Унгард, Александр Серов, Алексей Воробьев, Тимур Боканча, Софья Урицкая, Александр Касаткин

    Описание

    Героини Деффчонок - четыре подруги: мечтательная неудачница Маша, ее 16-летняя сестра Василиса, очкастый офисный планктон Катя и профессиональная блондинка Леля. Каждая хочет от жизни своего: успешной карьеры, правильного замужества, вселенской популярности...Способов стать счастливой миллион! Одна беда - в жизни все гораздо сложнее, чем в мечтах. Если ты попала на прослушивание к крутому продюсеру, это еще не значит, что тебя сделают звездой. Если заклеила депутата с Рублевки - далеко не факт, что он не слиняет от тебя в Лондон. Бурные ночи с поп-идолом еще не дают гарантии, что он захочет на тебе жениться. А когда ты влюбляешься в начальника, будь готова к тому, что он начнет играть твоими чувствами ради бизнеса.Сложность еще и в том, что подруги снимают одну на всех квартиру. Ведь все они приехали из Саратова, и родственников в столице у них нет. Жить вчетвером в одном шалаше - вот настоящая беда, в которой познаются друзья. Или это счастье, а не беда вовсе? Ответ на этот и еще 999 вопросов предстоит найти нашим героиням.

    Продолжительность: ~ 00: 24: 00 серия
    Качество видео: WEB-DLRip
    Видео: XVID, 704x400 (16: 9), ~ 1900 Kbps
    Аудио: MP3, 2 ch, 128 Kbps
    Код:
    General
    Complete name : Deffchonki.s05.e01.WEB-DLRip.avi
    Format : AVI
    Format/Info : Audio Video Interleave
    File size : 351 MiB
    Duration : 23mn 40s
    Overall bit rate : 2 070 Kbps
    Writing application : VirtualDubMod 1.5.10.3 |www.virtualdub-fr.org|| (build 2550/release)
    Writing library : VirtualDubMod build 2550/release
    Video
    ID : 0
    Format : MPEG-4 Visual
    Format profile : Advanced Simple@L5
    Format settings, BVOP : 1
    Format settings, QPel : No
    Format settings, GMC : No warppoints
    Format settings, Matrix : Custom
    Codec ID : XVID
    Codec ID/Hint : XviD
    Duration : 23mn 40s
    Bit rate : 1 932 Kbps
    Width : 704 pixels
    Height : 400 pixels
    Display aspect ratio : 16:9
    Frame rate : 25.000 fps
    Color space : YUV
    Chroma subsampling : 4:2:0
    Bit depth : 8 bits
    Scan type : Progressive
    Compression mode : Lossy
    Bits/(Pixel*Frame) : 0.274
    Stream size : 327 MiB (93%)
    Writing library : XviD 73
    Audio
    ID : 1
    Format : MPEG Audio
    Format version : Version 1
    Format profile : Layer 3
    Codec ID : 55
    Codec ID/Hint : MP3
    Duration : 23mn 40s
    Bit rate mode : Constant
    Bit rate : 128 Kbps
    Channel(s) : 2 channels
    Sampling rate : 48.0 KHz
    Compression mode : Lossy
    Stream size : 21.7 MiB (6%)
    Alignment : Aligned on interleaves
    Interleave, duration : 40 ms (1.00 video frame)
    Interleave, preload duration : 504 ms
    Writing library : LAME3.99r
    Encoding settings : -m s -V 4 -q 2 -lowpass 17 -b 128
    Автор рипа - ivandubskoj


    Скриншоты для ознакомления




    Онлайн видео Деффчонки (2015) WEB



    Деффчонки (2015) WEB-DLRip (сезон 5, серии 1-3 из ) (обновляемая)
    загрузка...
    Рейтинг →
     (голосов: 1, оценка 3/5, голосовать можно 1 раз )

    Другие торренты по теме:

  • Деффчонки (2015) WEB-DLRip [H.264] (сезон 5, серии 1-4 из 20) (обновляемая) скачать через торрент бесплатно
  • Деффчонки (2015) WEB-DLRip [H.264 / 720p-LQ] (сезон 5, серии 1-4 из 20) (обновляемая) скачать через торрент бесплатно


    • Комментарии (0):

      Информация

      Информация

        Посетители, находящиеся в группе Гости, не могут оставлять комментарии в данной новости.

        ↓ Меню




        ↓ Опрос

        Вы добавили сайт в закладки?
        Да
        Нет


        Top 10 за месяц (Фильмы)