.
Авторизация | Регистрация
Хочешь лучшие торренты? Добавь свой email!
Добавить

Торрент скачать бесплатно

» » Последние пантеры / The Last Panthers (2015) BDRip (сезон 1, серии 1 из 6) BaibaKo (обновляемая) скачать через торрент бесплатно




    Последние пантеры / The Last Panthers (2015) BDRip (сезон 1, серии 1 из 6) BaibaKo (обновляемая) скачать через торрент бесплатно

    Опубликовал: Админ | Дата: 18-11-2015, 04:00 | Просмотров: 97

    Производство: Великобритания, Франция
    Жанр: Боевик, Драма, Детектив, Криминал
    Режиссер: Йохан Ренк

    Актеры
    Саманта Мортон, Тахар Рахим, Горан Богдан, Джон Хёрт, Игор Бенчина, Янн Эбонж, Кобна Холдбрук-Смит, Мусса Мааскри, Адам Нина, Фарида Рахуадж, Наташа О’Кифф

    Описание

    Сюжет повествует о реально существующей знаменитой интернациональной банде воров Розовые пантеры, которая специализируется на краже драгоценностей. Эти ребята на мелочи не размениваются — обычно ценность их трофеев исчисляется десятками миллионов евро, поэтому каждое их новое ограбление обычно поднимает большой шум в мировой прессе. Тем не менее, команда международных экспертов попытается схватить неуловимых воров хотя бы в телевизионной реальности.

    Дата мировой премьеры: 26 октября 2015
    Продолжительность: ~ 00: 50: 00 серия
    Качество видео: BDRip
    Перевод: Многоголосый закадровый, профессиональный - BaibaKo
    Видео: Xvid, 720x304, ~1 496 Kbps
    Аудио Rus: MP3, 2 ch, 192 Kbps - многоголосый закадровый
    Аудио Eng: MP3, 2 ch, 192 Kbps - оригинал
    Код:

    General
    Complete name : \mybooklivePublicDownloadsРаздачаThe.Last.Panthers.S01.XviD.BaibaKoThe.Last.Panthers.s01e01.BDRip.XviD.Rus-Eng.BaibaKo.tv.avi
    Format : AVI
    Format/Info : Audio Video Interleave
    File size : 681 MiB
    Duration : 50mn 16s
    Overall bit rate : 1 895 Kbps
    Writing application : VirtualDubMod 1.5.10.2 (build 2540/release)
    Writing library : VirtualDubMod build 2540/release
    Video
    ID : 0
    Format : MPEG-4 Visual
    Format profile : Advanced Simple@L5
    Format settings, BVOP : 2
    Format settings, QPel : No
    Format settings, GMC : No warppoints
    Format settings, Matrix : Default (H.263)
    Codec ID : XVID
    Codec ID/Hint : XviD
    Duration : 50mn 16s
    Bit rate : 1 496 Kbps
    Width : 720 pixels
    Height : 304 pixels
    Display aspect ratio : 2.35:1
    Frame rate : 25.000 fps
    Color space : YUV
    Chroma subsampling : 4:2:0
    Bit depth : 8 bits
    Scan type : Progressive
    Compression mode : Lossy
    Bits/(Pixel*Frame) : 0.273
    Stream size : 538 MiB (79%)
    Writing library : XviD 67
    Audio #1
    ID : 1
    Format : MPEG Audio
    Format version : Version 1
    Format profile : Layer 3
    Mode : Joint stereo
    Mode extension : MS Stereo
    Codec ID : 55
    Codec ID/Hint : MP3
    Duration : 50mn 16s
    Bit rate mode : Constant
    Bit rate : 192 Kbps
    Channel(s) : 2 channels
    Sampling rate : 48.0 KHz
    Compression mode : Lossy
    Stream size : 69.0 MiB (10%)
    Alignment : Aligned on interleaves
    Interleave, duration : 40 ms (1.00 video frame)
    Interleave, preload duration : 504 ms
    Writing library : LAMEUUU
    Audio #2
    ID : 2
    Format : MPEG Audio
    Format version : Version 1
    Format profile : Layer 3
    Mode : Joint stereo
    Mode extension : MS Stereo
    Codec ID : 55
    Codec ID/Hint : MP3
    Duration : 50mn 16s
    Bit rate mode : Constant
    Bit rate : 192 Kbps
    Channel(s) : 2 channels
    Sampling rate : 48.0 KHz
    Compression mode : Lossy
    Stream size : 69.0 MiB (10%)
    Alignment : Aligned on interleaves
    Interleave, duration : 40 ms (1.00 video frame)
    Interleave, preload duration : 504 ms


    Скриншоты для ознакомления




    Онлайн видео Последние пантеры



    Последние пантеры/The Last Panthers (2015) BDRip (сезон 1, серии 1 из 6) BaibaKo (обновляемая)
    загрузка...
    Рейтинг →
     (голосов: 1, оценка 3/5, голосовать можно 1 раз )

    Другие торренты по теме:

  • Последние пантеры / The Last Panthers (2015) BDRip [H.264 / 720p-LQ] (сезон 1, серия 1 из 6) (BaibaKo) (обновляемая) скачать через торрент бесплатно
  • Последние пантеры / The Last Panthers (2015) BDRip (сезон 1, серии 1-6 из 6) BaibaKo


    • Комментарии (0):

      Информация

      Информация

        Посетители, находящиеся в группе Гости, не могут оставлять комментарии в данной новости.

        ↓ Меню




        ↓ Опрос

        Вы добавили сайт в закладки?
        Да
        Нет


        Top 10 за месяц (Фильмы)